Loading...
Error

Хищники крупным планом с Джоэлом Ламбертом / Predators Up Close with Joel Lambert (01-05 серии из 5) [2015 г., документальный, приключения, животные, HDTVRip] VO

Статистика раздачи
Размер:  2,66 GB   |    Зарегистрирован:  9 месяцев   |    Скачан:  4 раза

Полного источника не было: 4 месяца 17 дней

Сидов:  0  |  0 KB/s  ]   Личеров:  0  |  0 KB/s  ]

* - сиды/пиры с внешних источников

   
 
Автор Сообщение

ARI71 Пол:Муж

27-Ноя-2015 13:37

Хищники крупным планом с Джоэлом Ламбертом / Predators Up Close with Joel Lambert


Год выпуска: 2015
Жанр: документальный, приключения, животные
Страна: США
Режиссер: Discovery HD
В ролях: Джоэл Ламберт
Сюжет фильма:
Джоэл Ламберт хорошо знаком зрителям Discovery Channel по программе «Уйти от погони», где он бросал вызов лучшим спецназовцам мира. В своем новом проекте Джоэл встретится лицом к лицу с самыми опасными хищниками планеты. Вместе с экспертом-экстремалом зрители совершат кругосветное путешествие, чтобы увидеть грозных обитателей лесов и гор, джунглей и пустынь, рек и морей в естественной для них среде. Чтобы подобраться к хищникам поближе, Джоэл и его команда используют специальную лабораторию в виде прозрачного купола, которая защищает их от зубов и клыков, позволяя делать съемки крупным планом. Вы увидите уникальные кадры, заснятые в Замбии, ледяной пустыне Арктического океана, на мысе Доброй Надежды и в других местах. Героями проекта станут львы, гиены, акулы, полярные медведи и другие представители фауны, стоящие на вершине пищевой цепочки. Благодаря съемке с близкого расстояния вы почувствуете их дыхание и ощутите их мощь. Кроме того, Джоэл Ламберт проведет уникальные эксперименты: от измерения силы львиного укуса до проверки интеллекта гиены с помощью головоломки. Благодаря этим опытам вы узнаете много нового о силе и поведении хищников.
Качество видео: HDTVRip

Продолжительность: 5 x ~ 00:44:00
Формат: AVI
Видео: XviD, 720x400, 1537 kbps
Аудио: русский, одноголосый [профессиональный], AC3 2.0, 192 kbps (тех. данные серий идентичны)
Внимание! Раздача ведётся путём добавления новых серий; при каждом добавлении создаётся новый торрент. Чтобы начать докачку новой серии, пользователям необходимо сделать следующее: (1) остановить скачивание, (2) удалить старый торрент у себя из клиента (старые серии удалять не надо), (3) скачать новый торрент и запустить его у себя в клиенте вместо старого, при этом указать клиенту путь в старую папку куда и должно происходить скачивание новых серий.

Ваш клиент при этом должен произвести хеширование (проверку) старой папки (если не производит сам - помогите ему сделать это), и будет докачивать только те серии которых у вас ещё нет. Старые серии при этом не удаляются, а продолжают раздаваться!

Eсли вы уже удалили старые серии, то предотвратить повторную закачку старых серий можно, отжав галочку в соответсвующих местах при запуске нового торрента.
01. Львы.
02. Гиены.
03. Белые медведи
04. Акулы.
05. Лучшее. (Спецвыпуск)

Код:

Общее
Полное имя : D:\Хищники крупным планом с Джоэлом Ламбертом HitWay\01 Хищники крупным планом с Джоэлом Ламбертом HitWay.avi
Формат : AVI
Формат/Информация : Audio Video Interleave
Размер файла : 545 Мбайт
Продолжительность : 43 м.
Общий поток : 1741 Кбит/сек
Программа кодирования : VirtualDubMod 1.5.10.3 | www.virtualdub-fr.org || (build 2550/release)
Библиотека кодирования : VirtualDubMod build 2550/release

Видео
Идентификатор : 0
Формат : MPEG-4 Visual
Профиль формата : Advanced Simple@L5
Параметр BVOP формата : 1
Параметр QPel формата : Нет
Параметр GMC формата : Без точки перехода
Параметр матрицы формата : Выборочная
Идентификатор кодека : XVID
Идентификатор кодека/Подсказка : XviD
Продолжительность : 43 м.
Битрейт : 1537 Кбит/сек
Ширина : 720 пикселей
Высота : 400 пикселей
Соотношение сторон : 16:9
Частота кадров : 30,000 кадров/сек
Цветовое пространство : YUV
Субдискретизация насыщенности : 4:2:0
Битовая глубина : 8 бит
Тип развёртки : Прогрессивная
Метод сжатия : С потерями
Бит/(Пиксели*Кадры) : 0.178
Размер потока : 481 Мбайт (88%)
Библиотека кодирования : XviD 73

Аудио
Идентификатор : 1
Формат : AC-3
Формат/Информация : Audio Coding 3
Расширение режима : CM (complete main)
Параметр Endianness формата : Big
Идентификатор кодека : 2000
Продолжительность : 43 м.
Вид битрейта : Постоянный
Битрейт : 192 Кбит/сек
Каналы : 2 канала
Расположение каналов : Front: L R
Частота : 48,0 КГц
Метод сжатия : С потерями
Размер потока : 60,1 Мбайт (11%)
Выравнивание : Разделение по промежуткам
Продолжительность промежутка : 33 мс. (1,00 видеокадр)
Время предзагрузки промежутка : 500 мс.








Этот торрент недоступен для скачивания без регистрации, однако доступен по публичной magnet-ссылке (источники с публичных трекеров). Перед использованием ссылки прочтите, пожалуйста Пользовательское соглашение, а также как можно дольше оставайтесь на раздаче! Для того, чтобы скачать сам торрент-файл (который видит больше источников), а также для того, чтобы поблагодарить релизера, вам необходимо зарегистрироваться. Если регистрироваться лень - вы можете также попробовать скачать релиз по нашим партнерским ссылкам ниже.

[underverse.su].t63190.torrent
Трекер: Зарегистрирован   [ 16.02.2016 16:20 ]  

Статус: проверено (by 90ytr90 at 28.02.2016 18:32)
Поблагодарили: 2 человека
Тип торрента: публичный - доступные источники с открытых трекеров: 
Размер: 2,66 GB (занимает 0,61 DVDR, для записи нужно 1 болванка DVDR/RW)
 
 


Последний раз редактировалось: ARI71 (16.02.2016 16:19), всего редактировалось 5 раз(а)

ARI71 Пол:Муж

27-Ноя-2015 13:43

Приятного просмотра! Добавлены 4-я и 5-я заключительные серии этого сериала. Обновите пожалуйста торрент-файл! (16.02.16)

Яндекс.Метрика powered by Sphinx


В Н И М А Н И Е
Сайт не распространяет и не хранит электронные версии произведений, а лишь бесплатно и без коммерческой выгоды (не требуя взамен платы,
SMS и т.д.) предоставляет доступ к создаваемому пользователями каталогу ссылок на торрент-файлы, которые содержат только списки хеш-сумм.
Убедительная просьба с жалобами обращаться напрямую к пользователю, разместившему торрент файл.

Вверх