Loading...
Error

Приключения Пикси / Pixies (Шон Патрик О’Рейли) [2015 г., мультфильм, комедия, WEB-DLRip] Dub + Original

Статистика раздачи
Размер:  1,37 GB   |    Зарегистрирован:  1 год   |    Скачан:  26 раз

Полного источника не было: 18 дней

Сидов:  0  |  0 KB/s  ]   Личеров:  0  |  0 KB/s  ]

* - сиды/пиры с внешних источников

   
 
Автор Сообщение

makkol Пол:Муж

27-Ноя-2015 13:14

Приключения Пикси / Pixies
«Их проделки сводят с ума!»


Год выпуска: 2015
Жанр: мультфильм, комедия
Производство: Канада [Arcana Studio]
Режиссер: Шон Патрик О’Рейли
Роли озвучивали: Алекса ПенаВега, Карлос ПенаВега, Билл Пэкстон, Кристофер Пламмер, Джофф Густафссон, Элисон Вандзура, Дэвид Милчард, Кифер О’Рейли, Шон Патрик О’Рейли, Эрик Поллинс
Сюжет фильма:
Смешные шалости и хулиганские проказы пиксиков, волшебных эльфов, которые обычно живут глубоко под землей, перевернули жизнь обычного парня Джо Бека вверх дном.

  • Мировая премьера: 5 июня 2015
  • Российская премьера: 29 октября 2015


Качество видео: WEB-DLRip

Продолжительность: 01:17:29
Формат: AVI
Видео: XviD, 720x400 (16:9), 24.000 fps, 1940 kbps
Аудио #1: русский, дублированный (iTunes), AC3 5.1, 48 kHz, 384 kbps
Аудио #2: английский, оригинал, AC3 2.0, 48 kHz, 192 kbps

Код:

Формат                                   : AVI
Формат/Информация                        : Audio Video Interleave
Размер файла                             : 1,37 Гбайт
Продолжительность                        : 1 ч. 17 м.
Общий поток                              : 2530 Кбит/сек
Программа кодирования                    : VirtualDubMod 1.5.10.2 (build 2540/release)
Библиотека кодирования                   : VirtualDubMod build 2540/release

Видео
Идентификатор                            : 0
Формат                                   : MPEG-4 Visual
Профиль формата                          : Advanced Simple@L5
Параметр BVOP формата                    : 2
Параметр QPel формата                    : Нет
Параметр GMC формата                     : Без точки перехода
Параметр матрицы формата                 : Default (MPEG)
Идентификатор кодека                     : XVID
Идентификатор кодека/Подсказка           : XviD
Продолжительность                        : 1 ч. 17 м.
Битрейт                                  : 1940 Кбит/сек
Ширина                                   : 720 пикселей
Высота                                   : 400 пикселей
Соотношение сторон                       : 16:9
Частота кадров                           : 24,000 кадра/сек
Цветовое пространство                    : YUV
Субдискретизация насыщенности            : 4:2:0
Битовая глубина                          : 8 бит
Тип развёртки                            : Прогрессивная
Метод сжатия                             : С потерями
Бит/(Пиксели*Кадры)                      : 0.281
Размер потока                            : 1,05 Гбайт (77%)
Библиотека кодирования                   : XviD 1.2.1 (UTC 2008-12-04)

Аудио #1
Идентификатор                            : 1
Формат                                   : AC-3
Формат/Информация                        : Audio Coding 3
Расширение режима                        : CM (complete main)
Параметр Endianness формата              : Big
Идентификатор кодека                     : 2000
Продолжительность                        : 1 ч. 17 м.
Вид битрейта                             : Постоянный
Битрейт                                  : 384 Кбит/сек
Каналы                                   : 6 каналов
Расположение каналов                     : Front: L C R, Side: L R, LFE
Частота                                  : 48,0 КГц
Битовая глубина                          : 16 бит
Метод сжатия                             : С потерями
Размер потока                            : 213 Мбайт (15%)
Выравнивание                             : Разделение по промежуткам
Продолжительность промежутка             : 42  мс. (1,00 видеокадр)
Время предзагрузки промежутка            : 500  мс.

Аудио #2
Идентификатор                            : 2
Формат                                   : AC-3
Формат/Информация                        : Audio Coding 3
Расширение режима                        : CM (complete main)
Параметр Endianness формата              : Big
Идентификатор кодека                     : 2000
Продолжительность                        : 1 ч. 17 м.
Вид битрейта                             : Постоянный
Битрейт                                  : 192 Кбит/сек
Каналы                                   : 2 канала
Расположение каналов                     : Front: L R
Частота                                  : 48,0 КГц
Битовая глубина                          : 16 бит
Метод сжатия                             : С потерями
Размер потока                            : 106 Мбайт (8%)
Выравнивание                             : Разделение по промежуткам
Продолжительность промежутка             : 42  мс. (1,00 видеокадр)
Время предзагрузки промежутка            : 500  мс.
picpicpicpicpic
Для увеличения картинки щелкните мышкой по превью

Этот торрент недоступен для скачивания без регистрации, однако доступен по публичной magnet-ссылке (источники с публичных трекеров). Перед использованием ссылки прочтите, пожалуйста Пользовательское соглашение, а также как можно дольше оставайтесь на раздаче! Для того, чтобы скачать сам торрент-файл (который видит больше источников), а также для того, чтобы поблагодарить релизера, вам необходимо зарегистрироваться. Если регистрироваться лень - вы можете также попробовать скачать релиз по нашим партнерским ссылкам ниже.

[underverse.su].t60376.torrent
Трекер: Зарегистрирован   [ 27.11.2015 13:14 ]  

Статус: T временная (by makkol at 28.11.2015 11:13)
Поблагодарили: 1 человек
Тип торрента: публичный - доступные источники с открытых трекеров: 
Размер: 1,37 GB (занимает 0,31 DVDR, для записи нужно 1 болванка DVDR/RW)
 
 
Похожие темы
Форум Тема Автор Торрент Отв. Посл. сооб.
Зарубежное кино [DVDRip, Low-Res HDRip, и т.д.] Приключения Гекльберри Финна / Die Abenteuer des Huck Finn (Гермина Хунтгебурт) [2013 г., Приключения, BDRip-AVC] Dub Чертёнок
1 | 0

1 | 1261

37

08.06.2013 18:37

Зарубежное кино [DVDRip, Low-Res HDRip, и т.д.] Приключения Гекльберри Финна / Die Abenteuer des Huck Finn ( Гермина Хунтгебурт) [2012 г., Приключения, семейный, DVDRip] Dub Gaarochi
0 | 0

0 | 1548

23

08.06.2013 07:16

Зарубежное кино [DVDRip, Low-Res HDRip, и т.д.] Приключения Гекльберри Финна / Die Abenteuer des Huck Finn (Гермина Хунтгебурт / Hermine Huntgeburth) [2012 г., приключения, семейный, BDRip] Dub + Original 90ytr90
3 | 0

0 | 984

16

26.08.2013 15:09

T Зарубежное кино [DVDRip, Low-Res HDRip, и т.д.] Приключение двух нянь / Adventures in Babysitting (Джон Шульц / John Schultz) [2016 г., комедия, WEB-DLRip] Dub (чистый звук) 90ytr90
1238 | 24

0 | 285

8

03.11.2016 22:02

? Зарубежное кино [DVDRip, Low-Res HDRip, и т.д.] Приключения Затойчи / Adventures Of Zatoichi / Zatoichi sekisho yaburi (Кимиёши Ясуда) [1964 г., боевик, приключения, драма, HDRip] Dryn9
0 | 0

1 | 832

2

14.04.2014 17:06

Зарубежное кино [DVDRip, Low-Res HDRip, и т.д.] Приключение двух нянь / Adventures in Babysitting (Джон Шульц / John Schultz) [2016 г., комедия, WEB-DLRip-AVC] MVO (АНАНАС) + Original (Eng) + Sub (Rus, Eng) 90ytr90
178 | 4

0 | 485

7

26.10.2016 19:00

T Зарубежное кино [DVDRip, Low-Res HDRip, и т.д.] Приключение двух нянь / Adventures in Babysitting (Джон Шульц / John Schultz) [2016 г., комедия, WEB-DLRip] Dub (чистый звук) 90ytr90
0 | 0

0 | 483

7

26.10.2016 18:41

T Зарубежное кино [DVDRip, Low-Res HDRip, и т.д.] Приключения Паддингтона / Paddington (Пол Кинг) [2014 г., комедия, семейный, HDTVRip] Dub (чистый звук) 90ytr90
23 | 0

2 | 1100

147

08.03.2015 06:53

T Зарубежное кино [DVDRip, Low-Res HDRip, и т.д.] Приключения Паддингтона / Paddington (Пол Кинг) [2014 г., комедия, семейный, HDTVRip] Dub (чистый звук) 90ytr90
0 | 0

0 | 727

15

18.02.2015 06:11

Зарубежное кино [DVDRip, Low-Res HDRip, и т.д.] Приключения викингов / Viking Quest (Тодор Чапканов / Todor Chapkanov) [2014 г., фэнтези, боевик, HDRip] MVO (SDI) 90ytr90
1 | 0

0 | 1556

70

19.03.2015 11:52


Яндекс.Метрика powered by Sphinx


В Н И М А Н И Е
Сайт не распространяет и не хранит электронные версии произведений, а лишь бесплатно и без коммерческой выгоды (не требуя взамен платы,
SMS и т.д.) предоставляет доступ к создаваемому пользователями каталогу ссылок на торрент-файлы, которые содержат только списки хеш-сумм.
Убедительная просьба с жалобами обращаться напрямую к пользователю, разместившему торрент файл.

Вверх