Loading...
Error

Немецкий страх / German Angst (Йорг Буттгерайт, Михал Козаковски, Андреас Маршалл) [2015 г., ужасы, фэнтези, боевик, детектив, HDRip] DVO

Статистика раздачи
Размер:  1,45 GB   |    Зарегистрирован:  1 год   |    Скачан:  20 раз

Полного источника не было: 5 месяцев 16 дней

Сидов:  0  |  0 KB/s  ]   Личеров:  0  |  0 KB/s  ]

* - сиды/пиры с внешних источников

   
 
Автор Сообщение

makkol Пол:Муж

26-Ноя-2015 22:54

Немецкий страх / German Angst


Год выпуска: 2015
Жанр: ужасы, фэнтези, боевик, детектив
Производство: Германия [Kosakowski Films]
Режиссер: Йорг Буттгерайт, Михал Козаковски, Андреас Маршалл
В ролях: Лола Гэйв, Аксель Хольст, Михаэль Зеннер, Лила Лорэйн, Муки, Андреас Пейп, Маттан Харрис, Анника Штраус, Дэнис Лайонс, Мартина Шён-Радунски
Сюжет фильма:
В первом эпизоде фильма-антологии, носящем название «Final Girl», рассказывается о судьбе молодой женщины, живущей в центре Берлина. Во втором — «Alraune», повествуется о секс-клубе, в котором используют препарат с ужасными побочными эффектами. Третий эпизод, под названием «Make a Wish», расскажет о непростой судьбе глухих героев, попавшихся на глаза банде садистов.

  • Мировая премьера: 24 января 2015


Качество видео: HDRip

Продолжительность: 01:51:18
Формат: AVI
Видео: XviD, 720x304 (2.35:1), 24.000 fps, 1669 kbps
Аудио: русский, любительский двухголосый закадровый, AC3 2.0, 48 kHz, 192 kbps

Код:

General
Complete name : Nemeckij.strah.2015.L2.HDRip.avi
Format : AVI
Format/Info : Audio Video Interleave
File size : 1.45 GiB
Duration : 1h 51mn
Overall bit rate : 1 871 Kbps
Writing application : VirtualDubMod 1.5.10.3 | www.virtualdub-fr.org || (build 2550/release)
Writing library : VirtualDubMod build 2550/release
Video #0
ID : 0
Format : MPEG-4 Visual
Format profile : Advanced Simple@L5
Format settings, BVOP : 1
Format settings, QPel : No
Format settings, GMC : No warppoints
Format settings, Matrix : Custom
Codec ID : XVID
Codec ID/Hint : XviD
Duration : 1h 51mn
Bit rate : 1 669 Kbps
Width : 720 pixels
Height : 304 pixels
Display aspect ratio : 2.35:1
Frame rate : 24.000 fps
Color space : YUV
Chroma subsampling : 4:2:0
Bit depth : 8 bits
Scan type : Progressive
Compression mode : Lossy
Bits/(Pixel*Frame) : 0.318
Stream size : 1.30 GiB (89%)
Writing library : XviD 73
Audio #1
ID : 1
Format : AC-3
Format/Info : Audio Coding 3
Mode extension : CM (complete main)
Format settings, Endianness : Big
Codec ID : 2000
Duration : 1h 51mn
Bit rate mode : Constant
Bit rate : 192 Kbps
Channel(s) : 2 channels
Channel positions : Front: L R
Sampling rate : 48.0 KHz
Bit depth : 16 bits
Compression mode : Lossy
Stream size : 153 MiB (10%)
Alignment : Split accross interleaves
Interleave, duration : 42 ms (1.00 video frame)
Interleave, preload duration : 500 ms
Перевод: DeadSno & Zonder
Озвучка: den904 & DeadSno
Релиз группы:
picpicpicpicpic
Для увеличения картинки щелкните мышкой по превью

Этот торрент недоступен для скачивания без регистрации, однако доступен по публичной magnet-ссылке (источники с публичных трекеров). Перед использованием ссылки прочтите, пожалуйста Пользовательское соглашение, а также как можно дольше оставайтесь на раздаче! Для того, чтобы скачать сам торрент-файл (который видит больше источников), а также для того, чтобы поблагодарить релизера, вам необходимо зарегистрироваться. Если регистрироваться лень - вы можете также попробовать скачать релиз по нашим партнерским ссылкам ниже.

[underverse.su].t60355.torrent
Трекер: Зарегистрирован   [ 26.11.2015 22:54 ]  

Статус: проверено (by Паукан at 27.11.2015 05:58)
Поблагодарили: 1 человек
Тип торрента: публичный - доступные источники с открытых трекеров: 
Размер: 1,45 GB (занимает 1/3 DVDR, для записи нужно 1 болванка DVDR/RW)
 
 
Похожие темы
Форум Тема Автор Торрент Отв. Посл. сооб.
Зарубежное кино [HDDVDRip / BDRip / WEB-DL / HDTV 1080/720р] Немецкий страх / German Angst (Йорг Буттгерайт, Михал Козаковски, Андреас Маршалл) [2015 г., ужасы, фэнтези, боевик, детектив, BDRip 720p] DVO + Original makkol
23 | 0

0 | 403

25

26.11.2015 23:03


Яндекс.Метрика powered by Sphinx


В Н И М А Н И Е
Сайт не распространяет и не хранит электронные версии произведений, а лишь бесплатно и без коммерческой выгоды (не требуя взамен платы,
SMS и т.д.) предоставляет доступ к создаваемому пользователями каталогу ссылок на торрент-файлы, которые содержат только списки хеш-сумм.
Убедительная просьба с жалобами обращаться напрямую к пользователю, разместившему торрент файл.

Вверх