Loading...
Error

Близкое расстояние / Close Range (Айзек Флорентайн) [2015 г., боевик, криминал, WEB-DLRip] DVO

Статистика раздачи
Размер:  1,37 GB   |    Зарегистрирован:  1 год   |    Скачан:  29 раз

Полного источника не было: 1 день 12 часов

Сидов:  0  |  0 KB/s  ]   Личеров:  0  |  0 KB/s  ]

* - сиды/пиры с внешних источников

   
 
Автор Сообщение

makkol Пол:Муж

26-Ноя-2015 22:22

Близкое расстояние / Close Range


Год выпуска: 2015
Жанр: боевик, криминал
Производство: Великобритания [Altitude Film Entertainment, Electric Shadow Company, Fantastic Films Ltd]
Режиссер: Айзек Флорентайн
В ролях: Скотт Эдкинс, Ник Чинланд, Кэйтлин Китс, Джэйк Ла Ботц, Тони Перес, Мэдисон Лоулор, Хулиен Цезарио, Джимми Чхиу, Рэй Диас, Роберт Дилл
Сюжет фильма:
Вызволив свою племянницу из лап могущественного картеля, Колтон Макреди вступает в беспощадный бой во имя спасения членов собственной семьи, ставших теперь мишенями для преступников. Его ферму, расположенную в провинциальной глубинке, осаждают жаждущие мести наёмники картеля, прихватившие с собой продажного местного шерифа с командой помощников, которые обеспечат гарантию того, что в ближайшее время к Макреди помощь не прибудет. Начинается безостановочный и методичный штурм фермы, и Колтону ради защиты своих близких и собственного спасения предстоит до конца пройти этот «марафон на выживание».

  • Мировая премьера: 16 сентября 2015


Качество видео: WEB-DLRip

Продолжительность: 01:36:52
Формат: AVI
Видео: XviD, 720x400 (16:9), 25.000 fps, 1994 kbps
Аудио: русский, любительский двухголосый закадровый (Parovoz Production), AC3 2.0, 48 kHz, 384 kbps

Код:

Общее
Полное имя                               : Cl0se.RanGe.2015.L2.WEB-DLRip.av
Формат                                   : AVI
Формат/Информация                        : Audio Video Interleave
Размер файла                             : 1,37 Гбайт
Продолжительность                        : 1 ч. 21 м.
Общий поток                              : 2389 Кбит/сек
Программа кодирования                    : VirtualDubMod 1.5.10.3 | www.virtualdub-fr.org || (build 2550/release)
Библиотека кодирования                   : VirtualDubMod build 2550/release

Видео
Идентификатор                            : 0
Формат                                   : MPEG-4 Visual
Профиль формата                          : Advanced Simple@L5
Параметр BVOP формата                    : 2
Параметр QPel формата                    : Нет
Параметр GMC формата                     : Без точки перехода
Параметр матрицы формата                 : Default (MPEG)
Идентификатор кодека                     : XVID
Идентификатор кодека/Подсказка           : XviD
Продолжительность                        : 1 ч. 21 м.
Битрейт                                  : 1995 Кбит/сек
Ширина                                   : 720 пикселей
Высота                                   : 400 пикселей
Соотношение сторон                       : 16:9
Частота кадров                           : 25,000 кадров/сек
Цветовое пространство                    : YUV
Субдискретизация насыщенности            : 4:2:0
Битовая глубина                          : 8 бит
Тип развёртки                            : Прогрессивная
Метод сжатия                             : С потерями
Бит/(Пиксели*Кадры)                      : 0.277
Размер потока                            : 1,14 Гбайт (84%)
Библиотека кодирования                   : XviD 1.2.1 (UTC 2008-12-04)

Аудио
Идентификатор                            : 1
Формат                                   : AC-3
Формат/Информация                        : Audio Coding 3
Расширение режима                        : CM (complete main)
Параметр Endianness формата              : Big
Идентификатор кодека                     : 2000
Продолжительность                        : 1 ч. 21 м.
Вид битрейта                             : Постоянный
Битрейт                                  : 384 Кбит/сек
Каналы                                   : 2 канала
Расположение каналов                     : Front: L R
Частота                                  : 48,0 КГц
Метод сжатия                             : С потерями
Размер потока                            : 225 Мбайт (16%)
Выравнивание                             : Разделение по промежуткам
Продолжительность промежутка             : 40  мс. (1,00 видеокадр)
Время предзагрузки промежутка            : 500  мс.
picpicpicpicpic
Для увеличения картинки щелкните мышкой по превью

Этот торрент недоступен для скачивания без регистрации, однако доступен по публичной magnet-ссылке (источники с публичных трекеров). Перед использованием ссылки прочтите, пожалуйста Пользовательское соглашение, а также как можно дольше оставайтесь на раздаче! Для того, чтобы скачать сам торрент-файл (который видит больше источников), а также для того, чтобы поблагодарить релизера, вам необходимо зарегистрироваться. Если регистрироваться лень - вы можете также попробовать скачать релиз по нашим партнерским ссылкам ниже.

[underverse.su].t60351.torrent
Трекер: Зарегистрирован   [ 26.11.2015 22:22 ]  

Статус: проверено (by makkol at 27.11.2015 11:11)
Поблагодарили: 1 человек
Тип торрента: публичный - доступные источники с открытых трекеров: 
Размер: 1,37 GB (занимает 0,31 DVDR, для записи нужно 1 болванка DVDR/RW)
 
 
Похожие темы
Форум Тема Автор Торрент Отв. Посл. сооб.
Зарубежное кино [HDDVDRip / BDRip / WEB-DL / HDTV 1080/720р] Близкое расстояние / Close Range (Айзек Флорентайн) [2015 г., боевик, криминал, WEB-DL 1080p] DVO + Original makkol
1 | 0

0 | 397

22

26.11.2015 22:30


Яндекс.Метрика powered by Sphinx


В Н И М А Н И Е
Сайт не распространяет и не хранит электронные версии произведений, а лишь бесплатно и без коммерческой выгоды (не требуя взамен платы,
SMS и т.д.) предоставляет доступ к создаваемому пользователями каталогу ссылок на торрент-файлы, которые содержат только списки хеш-сумм.
Убедительная просьба с жалобами обращаться напрямую к пользователю, разместившему торрент файл.

Вверх