Loading...
Error

Моя мама / Mia madre (Нанни Моретти) [2015 г., драма, HDRip] MVO

Статистика раздачи
Размер:  1,45 GB   |    Зарегистрирован:  1 год   |    Скачан:  21 раз

Полного источника не было: 17 часов

Сидов:  0  |  0 KB/s  ]   Личеров:  0  |  0 KB/s  ]

* - сиды/пиры с внешних источников

   
 
Автор Сообщение

makkol Пол:Муж

24-Ноя-2015 22:21

Моя мама / Mia madre


Год выпуска: 2015
Жанр: драма
Производство: Италия , Франция [Sacher Film, Fandango, Le Pacte]
Режиссер: Нанни Моретти
В ролях: Маргерита Буй, Джон Туртурро, Джулия Лаццарини, Нанни Моретти, Беатрис Манчини, Стефано Аббати, Энрико Ианнелло, Анна Беллато, Тони Лаудадио, Лоренцо Джоиелли
Сюжет фильма:
Маргарита снимает новый фильм, возлагая большие надежды на приглашенного голливудского актера, однако на поверку тот оказывается чудаковатым щеглом, который не может запомнить ни строчки сценария, зато веселит всю съемочную группу. Кажется, все летит в тар-тарары: Маргарита уходит от партнера, с дочерью не ладится, и даже образцово-показательный брак испытывает кризис. В этой суматохе из жизни тихо уходит мама Маргариты, мудрая остроумная преподавательница латыни. С удивлением Маргарита обнаруживает, что жизнь ее мамы была полна вещей, о которых дочь и не подозревала…

  • Мировая премьера: 16 апреля 2015
  • Российская премьера: 24 сентября 2015


Качество видео: HDRip

Продолжительность: 01:47:10
Формат: AVI
Видео: XviD, 720x384 (1.85:1), 23.976 fps, 1742 kbps
Аудио: русский, профессиональный многоголосый закадровый (официальный звук), AC3 2.0, 48 kHz, 192 kbps

Код:

Общее
Полное имя                               : Moja.mama.2015.P.HDRip.1.46GB.avi
Формат                                   : AVI
Формат/Информация                        : Audio Video Interleave
Размер файла                             : 1,45 Гбайт
Продолжительность                        : 1 ч. 47 м.
Общий поток                              : 1943 Кбит/сек
Программа кодирования                    : VirtualDubMod 1.5.10.2 (build 2540/release)
Библиотека кодирования                   : VirtualDubMod build 2540/release

Видео
Идентификатор                            : 0
Формат                                   : MPEG-4 Visual
Профиль формата                          : Advanced Simple@L5
Параметр BVOP формата                    : 2
Параметр QPel формата                    : Нет
Параметр GMC формата                     : Без точки перехода
Параметр матрицы формата                 : Default (MPEG)
Идентификатор кодека                     : XVID
Идентификатор кодека/Подсказка           : XviD
Продолжительность                        : 1 ч. 47 м.
Битрейт                                  : 1742 Кбит/сек
Ширина                                   : 720 пикселей
Высота                                   : 384 пикселя
Соотношение сторон                       : 1,85:1
Частота кадров                           : 23,976 кадра/сек
Цветовое пространство                    : YUV
Субдискретизация насыщенности            : 4:2:0
Битовая глубина                          : 8 бит
Тип развёртки                            : Прогрессивная
Метод сжатия                             : С потерями
Бит/(Пиксели*Кадры)                      : 0.263
Размер потока                            : 1,30 Гбайт (90%)
Библиотека кодирования                   : XviD 1.2.1 (UTC 2008-12-04)

Аудио
Идентификатор                            : 1
Формат                                   : AC-3
Формат/Информация                        : Audio Coding 3
Расширение режима                        : CM (complete main)
Параметр Endianness формата              : Big
Идентификатор кодека                     : 2000
Продолжительность                        : 1 ч. 47 м.
Вид битрейта                             : Постоянный
Битрейт                                  : 192 Кбит/сек
Каналы                                   : 2 канала
Расположение каналов                     : Front: L R
Частота                                  : 48,0 КГц
Метод сжатия                             : С потерями
Размер потока                            : 147 Мбайт (10%)
Выравнивание                             : Разделение по промежуткам
Продолжительность промежутка             : 42  мс. (1,00 видеокадр)
Время предзагрузки промежутка            : 500  мс.
picpicpicpicpic
Для увеличения картинки щелкните мышкой по превью

Этот торрент недоступен для скачивания без регистрации, однако доступен по публичной magnet-ссылке (источники с публичных трекеров). Перед использованием ссылки прочтите, пожалуйста Пользовательское соглашение, а также как можно дольше оставайтесь на раздаче! Для того, чтобы скачать сам торрент-файл (который видит больше источников), а также для того, чтобы поблагодарить релизера, вам необходимо зарегистрироваться. Если регистрироваться лень - вы можете также попробовать скачать релиз по нашим партнерским ссылкам ниже.

[underverse.su].t60304.torrent
Трекер: Зарегистрирован   [ 24.11.2015 22:21 ]  

Статус: проверено (by makkol at 24.11.2015 22:57)
Поблагодарили: 1 человек
Тип торрента: публичный - доступные источники с открытых трекеров: 
Размер: 1,45 GB (занимает 1/3 DVDR, для записи нужно 1 болванка DVDR/RW)
 
 
Похожие темы
Форум Тема Автор Торрент Отв. Посл. сооб.
Зарубежное кино [HDDVDRip / BDRip / WEB-DL / HDTV 1080/720р] Моя мама / Mia madre (Нанни Моретти) [2015 г., драма, BDRip 1080p] MVO + Original makkol
1 | 0

0 | 262

6

24.11.2015 22:29


Яндекс.Метрика powered by Sphinx


В Н И М А Н И Е
Сайт не распространяет и не хранит электронные версии произведений, а лишь бесплатно и без коммерческой выгоды (не требуя взамен платы,
SMS и т.д.) предоставляет доступ к создаваемому пользователями каталогу ссылок на торрент-файлы, которые содержат только списки хеш-сумм.
Убедительная просьба с жалобами обращаться напрямую к пользователю, разместившему торрент файл.

Вверх