Loading...
Error

Кубинский хром / Cuban Chrome (1-8 серии из 8) [2015 г., документальный, автомобили, HDTVRip] VO

Статистика раздачи
Размер:  4,26 GB   |    Зарегистрирован:  8 месяцев   |    Скачан:  2 раза

Полного источника не было: 1 месяц 16 дней

Сидов:  0  |  0 KB/s  ]   Личеров:  0  |  0 KB/s  ]

* - сиды/пиры с внешних источников

   
 
Автор Сообщение

ARI71 Пол:Муж

24-Ноя-2015 15:08

Кубинский хром / Cuban Chrome (1-8 серии из 8 )


Год выпуска: 2015
Жанр: документальный, автомобили
Страна: США
Студия: Discovery Channel
Продолжительность: 8 x ~ 00:44:00
Перевод: русский, одноголосый (профессиональный)
Сюжет фильма:
В то время как люди по всему миру готовы вкладывать баснословные суммы в новые блестящие автомобили класса люкс, улицы Кубы наполнены самыми невообразимыми ретрокарами, сошедшими с конвейера десятки лет назад. Герои программы Discovery Channel «Кубинский хром» - гаванские автомеханики, которым приходится поддерживать на ходу допотопные автомобили, в других странах уже давно ставшие музейными экспонатами. И не просто поддерживать на ходу – эти тачки порой превращаются в настоящие произведения искусства! С 1959 по 2011 год на Кубе действовал запрет на импорт новых автомобилей из США. Отдельные партии автомобилей поставлялись в основном из СССР или из стран соцблока, причём в основном завозились грузовики и спецавто, например, медицинские и пожарные машины. Сегодня, даже несмотря на то, что все ограничения уже сняты, на улицах можно встретить необыкновенные ретрокары. Над их обликом трудятся настоящие профессионалы своего дела, благодаря которым Кубу называют автомобильным музеем под открытым небом.


Качество видео: HDTVRip

Формат: AVI
Видео: 720x400 (1.80:1), 30 fps, XviD build 50 ~1540 kbps avg, 0.18 bit/pixel
Аудио: 48 kHz, AC3 Dolby Digital, 2/0 (L,R) ch, ~192.00 kbps avg
(тех. данные всех серий идентичны)
01. Застрявшие во времени.
02. Прощай, мой дорогой мотор.
03. Поиск нового коленвала.
04. Старый конь борозды не испортит?
05. Эмбарго такое эмбарго.
06. Настоящая реликвия.
07. Миссия "Зажигание".
08. На пути к реставрации.

Код:

Общее
Полное имя : D:\Кубинский хром GeneralFilm\01 Кубинский хром GeneralFilm.avi
Формат : AVI
Формат/Информация : Audio Video Interleave
Размер файла : 548 Мбайт
Продолжительность : 43 м.
Общий поток : 1743 Кбит/сек
Программа кодирования : VirtualDubMod 1.5.10.3 | www.virtualdub-fr.org || (build 2550/release)
Библиотека кодирования : VirtualDubMod build 2550/release

Видео
Идентификатор : 0
Формат : MPEG-4 Visual
Профиль формата : Advanced Simple@L5
Параметр BVOP формата : 1
Параметр QPel формата : Нет
Параметр GMC формата : Без точки перехода
Параметр матрицы формата : Default (H.263)
Идентификатор кодека : XVID
Идентификатор кодека/Подсказка : XviD
Продолжительность : 43 м.
Битрейт : 1540 Кбит/сек
Ширина : 720 пикселей
Высота : 400 пикселей
Соотношение сторон : 16:9
Частота кадров : 30,000 кадров/сек
Цветовое пространство : YUV
Субдискретизация насыщенности : 4:2:0
Битовая глубина : 8 бит
Тип развёртки : Прогрессивная
Метод сжатия : С потерями
Бит/(Пиксели*Кадры) : 0.178
Размер потока : 484 Мбайт (88%)
Библиотека кодирования : XviD 1.2.1 (UTC 2008-12-04)

Аудио
Идентификатор : 1
Формат : AC-3
Формат/Информация : Audio Coding 3
Расширение режима : CM (complete main)
Параметр Endianness формата : Big
Идентификатор кодека : 2000
Продолжительность : 43 м.
Вид битрейта : Постоянный
Битрейт : 192 Кбит/сек
Каналы : 2 канала
Расположение каналов : Front: L R
Частота : 48,0 КГц
Метод сжатия : С потерями
Размер потока : 60,4 Мбайт (11%)
Выравнивание : Разделение по промежуткам
Продолжительность промежутка : 33 мс. (1,00 видеокадр)
Время предзагрузки промежутка : 500 мс.
pic pic pic pic pic
Для увеличения картинки щелкните мышкой по превью

Этот торрент недоступен для скачивания без регистрации, однако доступен по публичной magnet-ссылке (источники с публичных трекеров). Перед использованием ссылки прочтите, пожалуйста Пользовательское соглашение, а также как можно дольше оставайтесь на раздаче! Для того, чтобы скачать сам торрент-файл (который видит больше источников), а также для того, чтобы поблагодарить релизера, вам необходимо зарегистрироваться. Если регистрироваться лень - вы можете также попробовать скачать релиз по нашим партнерским ссылкам ниже.

[underverse.su].t64180.torrent
Трекер: Зарегистрирован   [ 12.03.2016 17:31 ]  

Статус: проверено (by makkol at 27.03.2016 15:51)
Поблагодарили: 2 человека
Тип торрента: публичный - доступные источники с открытых трекеров: 
Размер: 4,26 GB (занимает 0,97 DVDR, для записи нужно 1 болванка DVDR/RW)
 
 


Последний раз редактировалось: ARI71 (24.03.2016 21:25), всего редактировалось 5 раз(а)

90ytr90 

28-Фев-2016 18:27

01. Застрявшие во времени.
02. Прощай, мой дорогой мотор.
03. Поиск нового коленвала.
04. Старый конь борозды не испортит?
05. Эмбарго такое эмбарго.
06. Настоящая реликвия.
07. Миссия "Зажигание".
08. На пути к реставрации.

ARI71 Пол:Муж

12-Мар-2016 16:08

Добавлены заключительные 7-я и 8-я серии этого док. сериала. Чтобы скачать их, обновите пожалуйста торрент-файл!



Последний раз редактировалось: ARI71 (12.03.2016 17:43), всего редактировалось 1 раз

Яндекс.Метрика powered by Sphinx


В Н И М А Н И Е
Сайт не распространяет и не хранит электронные версии произведений, а лишь бесплатно и без коммерческой выгоды (не требуя взамен платы,
SMS и т.д.) предоставляет доступ к создаваемому пользователями каталогу ссылок на торрент-файлы, которые содержат только списки хеш-сумм.
Убедительная просьба с жалобами обращаться напрямую к пользователю, разместившему торрент файл.

Вверх