Loading...
Error

Синь-камень и древнее святилище [2008 г., документальный, исследование, история, познавательный, TVRip]

Статистика раздачи
Размер:  251 MB   |    Зарегистрирован:  1 год   |    Скачан:  10 раз

Полного источника не было: 1 месяц 14 дней

Сидов:  0  |  0 KB/s  ]   Личеров:  0  |  0 KB/s  ]

* - сиды/пиры с внешних источников

   
 
Автор Сообщение

ARI71 Пол:Муж

24-Ноя-2015 14:08

:x
Синь-камень и древнее святилище


Год выпуска: 2008
Жанр: документальный, исследование, история, познавательный
Страна: Россия «Форте-Медиа»
Режиссер: Марина Исаева, Юлия Творогова
Сюжет фильма:
Есть на Земле места, с которыми связаны много загадок и тайн. Испокон веков к ним тянулись люди, возводили вокруг них храмы и святилища, изучали их, верили в их чудодейственную силу и энергию. Этот фильм рассказывает о Синем камне на Плещеевом озере, легендах, связанных с ним, а также как об одном из 8 камней, использовавшихся для постройки фундамента святилища и лежавших в основании этой древней постройки.
Качество видео: TVRip

Продолжительность: 00:29:45
Формат: AVI
Видео: AVC x264, 704x528, 980 kbps
Аудио: русский, оригинал, MP3 2.0, 192 kbps

Код:

Общее
Полное имя : D:\Синь-камень и древнее святилище.avi
Формат : AVI
Формат/Информация : Audio Video Interleave
Размер файла : 251 Мбайт
Продолжительность : 29 м.
Общий поток : 1182 Кбит/сек
Библиотека кодирования : VirtualDub build 29808/release

Видео
Идентификатор : 0
Формат : AVC
Формат/Информация : Advanced Video Codec
Профиль формата : High@L5.1
Параметр CABAC формата : Да
Параметр ReFrames формата : 2 кадра
Идентификатор кодека : H264
Продолжительность : 29 м.
Битрейт : 980 Кбит/сек
Ширина : 704 пикселя
Высота : 528 пикселей
Соотношение сторон : 4:3
Частота кадров : 25,000 кадров/сек
Цветовое пространство : YUV
Субдискретизация насыщенности : 4:2:0
Битовая глубина : 8 бит
Тип развёртки : Прогрессивная
Бит/(Пиксели*Кадры) : 0.105
Размер потока : 209 Мбайт (83%)
Библиотека кодирования : x264 core 60 r889bm 2c59717
Настройки программы : cabac=1 / ref=1 / deblock=1:0:0 / analyse=0x3:0x133 / me=esa / subme=6 / brdo=1 / mixed_ref=0 / me_range=16 / chroma_me=1 / trellis=1 / 8x8dct=1 / cqm=0 / deadzone=21,11 / chroma_qp_offset=0 / threads=1 / nr=0 / decimate=1 / mbaff=0 / bframes=2 / b_pyramid=0 / b_adapt=1 / b_bias=0 / direct=3 / wpredb=1 / bime=1 / keyint=250 / keyint_min=25 / scenecut=40 / rc=2pass / bitrate=980 / ratetol=1.0 / rceq='blurCplx^(1-qComp)' / qcomp=1.00 / qpmin=10 / qpmax=51 / qpstep=4 / cplxblur=20.0 / qblur=0.5 / ip_ratio=1.40 / pb_ratio=1.30 / aq=2:1.00

Аудио
Идентификатор : 1
Формат : MPEG Audio
Версия формата : Version 1
Профиль формата : Layer 3
Режим : Joint stereo
Расширение режима : MS Stereo
Идентификатор кодека : 55
Идентификатор кодека/Подсказка : MP3
Продолжительность : 29 м.
Вид битрейта : Постоянный
Битрейт : 192 Кбит/сек
Каналы : 2 канала
Частота : 48,0 КГц
Метод сжатия : С потерями
Размер потока : 40,9 Мбайт (16%)
Выравнивание : Разделение по промежуткам
Продолжительность промежутка : 40 мс. (1,00 видеокадр)
Время предзагрузки промежутка : 500 мс.








Этот торрент недоступен для скачивания без регистрации, однако доступен по публичной magnet-ссылке (источники с публичных трекеров). Перед использованием ссылки прочтите, пожалуйста Пользовательское соглашение, а также как можно дольше оставайтесь на раздаче! Для того, чтобы скачать сам торрент-файл (который видит больше источников), а также для того, чтобы поблагодарить релизера, вам необходимо зарегистрироваться. Если регистрироваться лень - вы можете также попробовать скачать релиз по нашим партнерским ссылкам ниже.

[underverse.su].t60283.torrent
Трекер: Зарегистрирован   [ 24.11.2015 14:08 ]  

Статус: проверено (by makkol at 24.11.2015 14:23)
Поблагодарили: пока никто не поблагодарил...
Тип торрента: публичный - доступные источники с открытых трекеров: 
Размер: 251 MB (занимает 0,06 DVDR, для записи нужно 1 болванка DVDR/RW)
 
 

Яндекс.Метрика powered by Sphinx


В Н И М А Н И Е
Сайт не распространяет и не хранит электронные версии произведений, а лишь бесплатно и без коммерческой выгоды (не требуя взамен платы,
SMS и т.д.) предоставляет доступ к создаваемому пользователями каталогу ссылок на торрент-файлы, которые содержат только списки хеш-сумм.
Убедительная просьба с жалобами обращаться напрямую к пользователю, разместившему торрент файл.

Вверх