Loading...
Error

Эш против Зловещих мертвецов / Ash vs Evil Dead / Сезон 1 (1-10 серии из 10) (Майкл Херст, Рик Джейкобсон, Сэм Рэйми) [2015 г., ужасы, боевик, комедия, WEBRip] MVO (NewStudio) + Original

Статистика раздачи
Размер:  3,72 GB   |    Зарегистрирован:  7 месяцев   |    Скачан:  1 раз

Полного источника не было: 4 месяца 7 дней

Сидов:  0  |  0 KB/s  ]   Личеров:  0  |  0 KB/s  ]

* - сиды/пиры с внешних источников

   
 
Автор Сообщение

ultarasbarcelona Пол:Муж

23-Ноя-2015 10:07

Эш против Зловещих мертвецов / Ash vs Evil Dead / Сезон 1


Год выпуска: 2015
Жанр: ужасы, боевик, комедия
Страна: США
Режиссер: Майкл Херст, Рик Джейкобсон, Сэм Рэйми
В ролях: Брюс Кэмпбелл, Джилл Мари Джонс, Дэна ДеЛоренцо, Люси Лоулесс, Рэй Сантьяго, Мими Роджерс, Хемки Мадера, Фил Пелетон, Майк Эдвард
Сюжет фильма:
Последние тридцать лет Эш старательно избегал всего, что связано с воспоминаниями о зловещих мертвецах, но когда очередное нашествие дедайтов грозит уничтожить все все население планеты, Эш становится единственным шансом человечества на спасение.

  • Мировая премьера: 31 октября 2015
  • Российская премьера: 31 октября 2015


Качество видео: WEBRip

Продолжительность: 10 X ~00:45:00
Формат: AVI
Видео: XviD, 720x400, 25.000 fps, ~1500 kbps
Аудио #1: русский, многоголосый закадровый [профессиональный, NewStudio], MP3 2.0, 48 kHz, 128 kbps
Аудио #2: английский, оригинал, MP3 2.0, 48 kHz, 128 kbps

Релиз группы:

Код:

Format : AVI
Format/Info : Audio Video Interleave
File size : 550 MiB
Duration : 43mn 59s
Overall bit rate : 1 748 Kbps
Writing application : VirtualDubMod 1.5.10.2 (build 2540/release)
Writing library : VirtualDubMod build 2540/release

Video
ID : 0
Format : MPEG-4 Visual
Format profile : Advanced Simple@L5
Format settings, BVOP : 2
Format settings, QPel : No
Format settings, GMC : No warppoints
Format settings, Matrix : Default (MPEG)
Codec ID : XVID
Codec ID/Hint : XviD
Duration : 43mn 59s
Bit rate : 1 478 Kbps
Width : 720 pixels
Height : 400 pixels
Display aspect ratio : 16:9
Frame rate : 23.976 fps
Color space : YUV
Chroma subsampling : 4:2:0
Bit depth : 8 bits
Scan type : Progressive
Compression mode : Lossy
Bits/(Pixel*Frame) : 0.214
Stream size : 465 MiB (85%)
Writing library : XviD 73

Audio #1
ID : 1
Format : MPEG Audio
Format version : Version 1
Format profile : Layer 3
Mode : Joint stereo
Codec ID : 55
Codec ID/Hint : MP3
Duration : 43mn 59s
Bit rate mode : Constant
Bit rate : 128 Kbps
Channel(s) : 2 channels
Sampling rate : 48.0 KHz
Compression mode : Lossy
Stream size : 40.3 MiB (7%)
Alignment : Aligned on interleaves
Interleave, duration : 42 ms (1.00 video frame)
Interleave, preload duratio : 504 ms
Writing library : LAME3.99r
Encoding settings : -m j -V 4 -q 2 -lowpass 17 -b 128

Audio #2
ID : 2
Format : MPEG Audio
Format version : Version 1
Format profile : Layer 3
Mode : Joint stereo
Codec ID : 55
Codec ID/Hint : MP3
Duration : 43mn 59s
Bit rate mode : Constant
Bit rate : 128 Kbps
Channel(s) : 2 channels
Sampling rate : 48.0 KHz
Compression mode : Lossy
Stream size : 40.3 MiB (7%)
Alignment : Aligned on interleaves
Interleave, duration : 42 ms (1.00 video frame)
Interleave, preload duratio : 504 ms
Writing library : LAME3.99r
Encoding settings : -m j -V 4 -q 2 -lowpass 17 -b 128
Когда раздача ведётся путём добавления новых серий, при каждом добавлении создётся новый торрент. Чтобы начать докачку новой серии, пользователям необходимо сделать следующее:
(1) остановить скачивание,
(2) удалить старый торрент у себя из клиента (старые серии удалять не надо),
(3) скачать новый торрент и запустить его у себя в клиенте вместо старого, при этом указать клиенту путь в старую папку, куда и должно происходить скачивание новых серий.
Ваш клиент при этом должен произвести хеширование (проверку) старой папки (если не производит сам - помогите ему сделать это), и будет докачивать только те серии, которых у вас ещё нет. Старые серии при этом не удаляются, а продолжают раздаваться!
Eсли вы уже удалили старые серии, то предотвратить повторную закачку старых серий можно, отжав галочку в соответсвующих местах при запуске нового торрента. По возможности, желательно не удалять старые серии как можно дольше, чтобы релизёр не столько продолжал раздавать старые серии, а смог сконцентрироваться на новых.
picpicpicpic
Для увеличения картинки щелкните мышкой по превью

Этот торрент недоступен для скачивания без регистрации, однако доступен по публичной magnet-ссылке (источники с публичных трекеров). Перед использованием ссылки прочтите, пожалуйста Пользовательское соглашение, а также как можно дольше оставайтесь на раздаче! Для того, чтобы скачать сам торрент-файл (который видит больше источников), а также для того, чтобы поблагодарить релизера, вам необходимо зарегистрироваться. Если регистрироваться лень - вы можете также попробовать скачать релиз по нашим партнерским ссылкам ниже.

[underverse.su].t60236.torrent
Трекер: Зарегистрирован   [ 05.05.2016 11:46 ]  

Статус: * не проверено
Поблагодарили: пока никто не поблагодарил...
Тип торрента: публичный - доступные источники с открытых трекеров: 
Размер: 3,72 GB (занимает 0,85 DVDR, для записи нужно 1 болванка DVDR/RW)
 
 
Похожие темы
Форум Тема Автор Торрент Отв. Посл. сооб.
* Зарубежные сериалы Эш против Зловещих мертвецов / Ash vs Evil Dead / Сезон 1 (1-10 серии из 10) (Майкл Херст, Рик Джейкобсон, Сэм Рэйми) [2015 г., ужасы, боевик, комедия, HDTVRip] MVO (Amedia) ultarasbarcelona
5 | 3

1 | 1816

1

05.05.2016 12:03

Зарубежные сериалы Эш против Зловещих мертвецов / Ash vs Evil Dead / Сезон 1 (1-10 серии из 10) (Майкл Херст, Рик Джейкобсон, Сэм Рэйми) [2015 г., ужасы, боевик, комедия, HDTVRip] 4xMVO + DVO + AVO + Original + Subs makkol
13 | 3

0 | 1504

5

05.05.2016 14:00

Зарубежные сериалы [BD / Remux / BDRip / WEB-DL / HDTV 1080/720р] Эш против Зловещих мертвецов / Ash vs Evil Dead / Сезон 1 (1-10 серии из 10) (Майкл Херст, Рик Джейкобсон, Сэм Рэйми) [2015 г., ужасы, боевик, комедия, HDTVRip 1080p] 4xMVO + DVO + AVO + Original +... makkol
34 | 17

0 | 1562

4

05.05.2016 14:14

makkol Пол:Муж

05-Май-2016 11:50

5.05.16. Раздача обновлена.
Добавлены недостающие серии.
Сезон представлен полностью.

Яндекс.Метрика powered by Sphinx


В Н И М А Н И Е
Сайт не распространяет и не хранит электронные версии произведений, а лишь бесплатно и без коммерческой выгоды (не требуя взамен платы,
SMS и т.д.) предоставляет доступ к создаваемому пользователями каталогу ссылок на торрент-файлы, которые содержат только списки хеш-сумм.
Убедительная просьба с жалобами обращаться напрямую к пользователю, разместившему торрент файл.

Вверх