Loading...
Error

Терминатор: Генезис / Terminator: Genisys (Алан Тейлор) [2015 г., фантастика, боевик, триллер, приключения, BDRip] Dub

Статистика раздачи
Размер:  1,46 GB   |    Зарегистрирован:  1 год   |    Скачан:  50 раз

Полного источника не было: 4 часа

Сидов:  0  |  0 KB/s  ]   Личеров:  0  |  0 KB/s  ]

* - сиды/пиры с внешних источников

   
 
Автор Сообщение

makkol Пол:Муж

22-Ноя-2015 12:38

Терминатор: Генезис / Terminator: Genisys
«Судьба переписана»


Год выпуска: 2015
Жанр: фантастика, боевик, триллер, приключения
Производство: США [Paramount Pictures, Skydance Productions, Centroid Motion Capture, Double Negative]
Режиссер: Алан Тейлор
В ролях: Арнольд Шварценеггер, Джейсон Кларк, Эмилия Кларк, Джай Кортни, Дж.К. Симмонс, Дайо Окенийи, Мэтт Смит, Кортни Б. Вэнс, Ли Бён Хон, Майкл Глэдис
Сюжет фильма:
Когда Джон Коннор, лидер сопротивления, посылает сержанта Кайла Риза назад в 1984 год, чтобы защитить Сару Коннор и спасти будущее, неожиданный поворот событий создает разлом во времени. Сержант Риз оказывается в новой, незнакомой версии прошлого, где он встречает неожиданных союзников, в том числе Терминатора, новых опасных врагов, и новую миссию: изменить будущее…

  • Мировая премьера: 21 июня 2015
  • Российская премьера: 2 июля 2015
  • Релиз на DVD и Blu-Ray: 22 ноября 2015


Релиз: Лицензия

Качество видео: BDRip

Продолжительность: 02:05:43
Формат: AVI
Видео: XviD, 720x304 (2.35:1), 23.976 fps, 1269 kbps
Аудио: русский, дублированный, AC3 5.1, 48 kHz, 384 kbps

Скачать отдельно русские (форс.+полные), украинские (форсированные), английские субтитры

Код:

General
Format                                   : AVI
Format/Info                              : Audio Video Interleave
File size                                : 1.46 GiB
Duration                                 : 2h 5mn
Overall bit rate                         : 1 663 Kbps
Writing application                      : VirtualDubMod 1.5.10.3 | www.virtualdub-fr.org || (build 2550/release)
Writing library                          : VirtualDubMod build 2550/release

Video
ID                                       : 0
Format                                   : MPEG-4 Visual
Format profile                           : Advanced Simple@L5
Format settings, BVOP                    : 1
Format settings, QPel                    : No
Format settings, GMC                     : No warppoints
Format settings, Matrix                  : Custom
Codec ID                                 : XVID
Codec ID/Hint                            : XviD
Duration                                 : 2h 5mn
Bit rate                                 : 1 269 Kbps
Width                                    : 720 pixels
Height                                   : 304 pixels
Display aspect ratio                     : 2.35:1
Frame rate                               : 23.976 fps
Color space                              : YUV
Chroma subsampling                       : 4:2:0
Bit depth                                : 8 bits
Scan type                                : Progressive
Compression mode                         : Lossy
Bits/(Pixel*Frame)                       : 0.242
Stream size                              : 1.11 GiB (76%)
Writing library                          : XviD 73

Audio
ID                                       : 1
Format                                   : AC-3
Format/Info                              : Audio Coding 3
Mode extension                           : CM (complete main)
Format settings, Endianness              : Big
Codec ID                                 : 2000
Duration                                 : 2h 5mn
Bit rate mode                            : Constant
Bit rate                                 : 384 Kbps
Channel(s)                               : 6 channels
Channel positions                        : Front: L C R, Side: L R, LFE
Sampling rate                            : 48.0 KHz
Bit depth                                : 16 bits
Compression mode                         : Lossy
Stream size                              : 345 MiB (23%)
Alignment                                : Split accross interleaves
Interleave, duration                     : 42 ms (1.00 video frame)
Interleave, preload duration             : 500 ms
Релиз от:

picpicpicpicpic
Для увеличения картинки щелкните мышкой по превью

Этот торрент недоступен для скачивания без регистрации, однако доступен по публичной magnet-ссылке (источники с публичных трекеров). Перед использованием ссылки прочтите, пожалуйста Пользовательское соглашение, а также как можно дольше оставайтесь на раздаче! Для того, чтобы скачать сам торрент-файл (который видит больше источников), а также для того, чтобы поблагодарить релизера, вам необходимо зарегистрироваться. Если регистрироваться лень - вы можете также попробовать скачать релиз по нашим партнерским ссылкам ниже.

[underverse.su].t60198.torrent
Трекер: Зарегистрирован   [ 22.11.2015 12:38 ]  

Статус: проверено (by makkol at 22.11.2015 23:48)
Поблагодарили: 7 человек
Тип торрента: публичный - доступные источники с открытых трекеров: 
Размер: 1,46 GB (занимает 0,33 DVDR, для записи нужно 1 болванка DVDR/RW)
 
 
Похожие темы
Форум Тема Автор Торрент Отв. Посл. сооб.
Зарубежное кино [DVDRip, Low-Res HDRip, и т.д.] Терминатор: Да придёт спаситель / Terminator Salvation (МакДжи) [2009 г., фантастика, боевик, триллер, приключения, DVDRip] venom57rus
0 | 0

10 | 2765

102

07.09.2011 10:18

Зарубежное кино [DVDRip, Low-Res HDRip, и т.д.] Терминатор 2: Судный день / Terminator 2: Judgment Day (Джеймс Кэмерон) [1991 г., фантастика, триллер, боевик, BDRip] Saggitarius
4 | 0

6 | 1884

32

09.01.2011 19:12

Зарубежное кино [DVDRip, Low-Res HDRip, и т.д.] Терминатор: Генезис / Terminator: Genisys (Алан Тейлор / Alan Taylor) [2015 г., фантастика, боевик, триллер, HDRip] MVO (Омикрон) + 2xAVO (Володарский, Гаврилов) 90ytr90
55 | 0

0 | 531

12

16.01.2016 11:11

Зарубежное кино [DVDRip, Low-Res HDRip, и т.д.] Терминатор: Генезис / Terminator: Genisys (Алан Тейлор / Alan Taylor) [2015 г., фантастика, боевик, триллер, BDRip] 2xDub (Rus, Ukr) + Original (Eng) + Sub (Rus, Eng) 90ytr90
0 | 0

0 | 580

6

16.01.2016 11:17

Зарубежное кино HQ Терминатор / The Terminator [Remastered] (Джеймс Кэмерон / James Cameron) [1984 г., фантастика, боевик, BDRip] Rus (Dub) + Original HQ Underverse HQ Underverse
3 | 0

0 | 1014

11

19.11.2014 09:29

Зарубежные сериалы Терминатор: Хроники Сары Коннор (Девид Неттер ) [ г., фантастика, боевик, HDTVRip] (1 и 2 сезон, 31 серия из 31) три колоска
0 | 0

2 | 1668

10

14.08.2011 16:30

Мультсериалы Терминатор - Да придёт Спаситель / Terminator - Salvation The Machinima Series / серии 1-6 (Тор Хельмштайн, Йен Кирби)[ 2009,фантастика, мультфильм, DVDRip] МУХА~
0 | 0

0 | 1426

12

06.09.2010 17:07

Зарубежное кино [DVD / HDDVD / BD / Remux] Терминатор / The Terminator (Джеймс Кэмерон / James Cameron) [1984, Великобритания, США, фантастика, боевик, Blu-ray Disc 1080p BD-50] DUB + Original Eng + Subs uzi2009
8 | 0

1 | 1197

6

29.01.2014 14:46

Зарубежное кино [HDDVDRip / BDRip / WEB-DL / HDTV 1080/720р] Терминатор. Генезис 3D / Terminator Genisys 3D (Алан Тейлор) [2015 г., фантастика, боевик, триллер, приключения, BDRip 1080p] Dub + Original makkol
1 | 0

0 | 1003

40

16.10.2015 14:18

Зарубежное кино [HDDVDRip / BDRip / WEB-DL / HDTV 1080/720р] Терминатор: Генезис / Terminator: Genisys (Алан Тейлор) [2015 г., фантастика, боевик, триллер, приключения, BDRip 720p] Dub (Rus) + Dub (Ukr) + Original + Subs makkol
15 | 0

0 | 510

31

22.11.2015 12:52

vvmalysh Пол:Муж

22-Ноя-2015 15:28

makkol
Беру. Гляну на старину Арни :twisted:

Яндекс.Метрика powered by Sphinx


В Н И М А Н И Е
Сайт не распространяет и не хранит электронные версии произведений, а лишь бесплатно и без коммерческой выгоды (не требуя взамен платы,
SMS и т.д.) предоставляет доступ к создаваемому пользователями каталогу ссылок на торрент-файлы, которые содержат только списки хеш-сумм.
Убедительная просьба с жалобами обращаться напрямую к пользователю, разместившему торрент файл.

Вверх