Loading...
Error

Якудза-апокалипсис: Великая война в преступном мире / Gokudou daisensou (Такаси Миике) [2015 г., ужасы, боевик, DVDRip] VO

Статистика раздачи
Размер:  1,48 GB   |    Зарегистрирован:  1 год   |    Скачан:  33 раза

Полного источника не было: 4 дня

Сидов:  0  |  0 KB/s  ]   Личеров:  0  |  0 KB/s  ]

* - сиды/пиры с внешних источников

   
 
Автор Сообщение

makkol Пол:Муж

22-Ноя-2015 10:57

Якудза-апокалипсис: Великая война в преступном мире / Gokudou daisensou


Год выпуска: 2015
Жанр: ужасы, боевик
Производство: Япония [Backup Media, Django Film]
Режиссер: Такаси Миике
В ролях: Яян Рухьян, Пьер Таки, Рири Фуранки, Мио Юки, Хаято Итихара, Денден, Тэцу Ватанабэ, Рико Наруми, Йошиюки Моришита, Шо Аояги
Сюжет фильма:
Безжалостный и непобедимый босс криминального мира Кэмюра оказывается вампиром. Однажды убийцы, знающие секрет, ставят его перед фактом: смерть или возвращение в бизнес международного синдиката. Якудза отказывается, и во время жестокого побоища его помощника Кагияму разрывают на куски. Чтобы спасти друга, умирающий Кэмюра кусает его. После превращения в вампира Кагияма жаждет отомстить за смерть босса.

  • Мировая премьера: 21 мая 2015


Качество видео: DVDRip

Продолжительность: 01:55:08
Формат: AVI
Видео: XviD, 720x304 (2.35:1), 23.976 fps, 1633 kbps
Аудио: русский, любительский одноголосый закадровый, AC3 2.0, 48 kHz, 192 kbps

Код:

Общее
Полное имя                               : Yakuza.Apocalypse.2015_KypoJIecoB.avi
Формат                                   : AVI
Формат/Информация                        : Audio Video Interleave
Размер файла                             : 1,48 Гбайт
Продолжительность                        : 1 ч. 55 м.
Общий поток                              : 1834 Кбит/сек

Видео
Идентификатор                            : 0
Формат                                   : MPEG-4 Visual
Профиль формата                          : Advanced Simple@L5
Параметр BVOP формата                    : 2
Параметр QPel формата                    : Нет
Параметр GMC формата                     : Без точки перехода
Параметр матрицы формата                 : Default (H.263)
Идентификатор кодека                     : XVID
Идентификатор кодека/Подсказка           : XviD
Продолжительность                        : 1 ч. 55 м.
Битрейт                                  : 1633 Кбит/сек
Ширина                                   : 720 пикселей
Высота                                   : 304 пикселя
Соотношение сторон                       : 2,35:1
Частота кадров                           : 23,976 кадра/сек
Цветовое пространство                    : YUV
Субдискретизация насыщенности            : 4:2:0
Битовая глубина                          : 8 бит
Тип развёртки                            : Прогрессивная
Метод сжатия                             : С потерями
Бит/(Пиксели*Кадры)                      : 0.311
Размер потока                            : 1,31 Гбайт (89%)
Библиотека кодирования                   : XviD 67

Аудио
Идентификатор                            : 1
Формат                                   : AC-3
Формат/Информация                        : Audio Coding 3
Расширение режима                        : CM (complete main)
Параметр Endianness формата              : Big
Идентификатор кодека                     : 2000
Продолжительность                        : 1 ч. 55 м.
Вид битрейта                             : Постоянный
Битрейт                                  : 192 Кбит/сек
Каналы                                   : 2 канала
Расположение каналов                     : Front: L R
Частота                                  : 48,0 КГц
Метод сжатия                             : С потерями
Размер потока                            : 158 Мбайт (10%)
Выравнивание                             : Разделение по промежуткам
Продолжительность промежутка             : 42  мс. (1,00 видеокадр)
Время предзагрузки промежутка            : 500  мс.
Перевод: МЕГАПЫХАРЬ
Озвучивание: Васька Куролесов
Релиз от:
picpicpicpicpic
Для увеличения картинки щелкните мышкой по превью

Этот торрент недоступен для скачивания без регистрации, однако доступен по публичной magnet-ссылке (источники с публичных трекеров). Перед использованием ссылки прочтите, пожалуйста Пользовательское соглашение, а также как можно дольше оставайтесь на раздаче! Для того, чтобы скачать сам торрент-файл (который видит больше источников), а также для того, чтобы поблагодарить релизера, вам необходимо зарегистрироваться. Если регистрироваться лень - вы можете также попробовать скачать релиз по нашим партнерским ссылкам ниже.

[underverse.su].t60196.torrent
Трекер: Зарегистрирован   [ 22.11.2015 10:57 ]  

Статус: проверено (by makkol at 22.11.2015 23:46)
Поблагодарили: пока никто не поблагодарил...
Тип торрента: публичный - доступные источники с открытых трекеров: 
Размер: 1,48 GB (занимает 0,34 DVDR, для записи нужно 1 болванка DVDR/RW)
 
 
Похожие темы
Форум Тема Автор Торрент Отв. Посл. сооб.
Зарубежное кино [HDDVDRip / BDRip / WEB-DL / HDTV 1080/720р] Якудза-апокалипсис: Великая война в преступном мире / Gokudou daisensou (Такаси Миике) [2015 г., ужасы, боевик, BDRip 1080p] VO makkol
3 | 2

0 | 569

12

22.11.2015 11:16


Яндекс.Метрика powered by Sphinx


В Н И М А Н И Е
Сайт не распространяет и не хранит электронные версии произведений, а лишь бесплатно и без коммерческой выгоды (не требуя взамен платы,
SMS и т.д.) предоставляет доступ к создаваемому пользователями каталогу ссылок на торрент-файлы, которые содержат только списки хеш-сумм.
Убедительная просьба с жалобами обращаться напрямую к пользователю, разместившему торрент файл.

Вверх