Loading...
Error

Чикаго в огне / Chicago Fire / Сезон 3 (1-23 из 23) (Джо Чаппелль, Жан Де Сегонзак, Майкл Словис) [2014 г., Драма, боевик, WEB-DLRip] VO (Денис Шадинский) + Original

Статистика раздачи
Размер:  18,92 GB   |    Зарегистрирован:  1 год   |    Скачан:  1 раз

Полного источника не было: 10 месяцев

Сидов:  0  |  0 KB/s  ]   Личеров:  0  |  0 KB/s  ]

* - сиды/пиры с внешних источников

   
 
Автор Сообщение

ultarasbarcelona Пол:Муж

22-Ноя-2015 09:06

Чикаго в огне / Chicago Fire / Сезон 3


Год выпуска: 2014
Жанр: Драма, боевик
Страна: США [Universal TV, Wolf Films]
Режиссер: Джо Чаппелль, Жан Де Сегонзак, Майкл Словис
В ролях: Тейлор Кинни, Джесси Спенсер, Моника Рэйманд, Лорен Джерман, Чарли Барнетт, Юрий Сардаров, Имонн Уолкер, Кристиан Столте, Рэнди Флаглер, Энн Локхарт
Сюжет фильма:
Firehouse 51 — это слаженная команда чикагских пожарных, спасателей и парамедиков, которые ежедневно и еженощно спасают жизни людей попавших в плен огненной стихии. Лейтенант Мэтью Кейси — прирожденный лидер и настоящий пожарный. После разрыва с любимой женщиной он во многом пересмотрел свои взгляды на многие вещи. А после гибели друга и коллеги Эндрю Дардена, Кейси теперь постоянно находится в конфронтации с другим членом команды — спасателем, лейтенантом Келли Северайдом. Они не могут смириться с потерей друга и поэтому обвиняют друг друга в смерти Дардена. Также в команду входят новичок Питер Миллс, чей отец также был пожарным, два парамедика: Габриэла Доусон и Лесли Шей и шеф - Уоллес Боден. Находясь на переднем рубеже жизни и смерти, им приходится принимать не простые решения, они постоянно рискуют своими жизнями, надеясь лишь на поддержку коллег и друзей, что бы ни случилось...

Качество видео: WEB-DLRip

Продолжительность: 00:43:00
Формат: AVI
Видео: XviD, 720x400, 2000 kbps
Аудио #1: русский, одноголосый закадровый [любительский, Денис Шадинский], AC3 5.1, 384 kbps
Аудио #2: английский, оригинал, AC3 5.1, 384 kbps
Субтитры: английские внешние, SRT

Код:

Общее
Полное имя : Chicago Fire Season 3 CasStudio.TVChicago.Fire.s03e01.rus.eng.CasStudio.TV.avi
Формат : AVI
Формат/Информация : Audio Video Interleave
Размер файла : 851 Мбайт
Продолжительность : 42 м.
Общий поток : 2782 Кбит/сек
Программа кодирования : VirtualDubMod 1.5.10.2 (build 2540/release)
Библиотека кодирования : VirtualDubMod build 2540/release

Видео
Идентификатор : 0
Формат : MPEG-4 Visual
Профиль формата : Advanced Simple@L5
Параметр BVOP формата : 1
Параметр QPel формата : Нет
Параметр GMC формата : Без точки перехода
Параметр матрицы формата : Default (MPEG)
Идентификатор кодека : XVID
Идентификатор кодека/Подсказка : XviD
Продолжительность : 42 м.
Битрейт : 1893 Кбит/сек
Ширина : 720 пикселей
Высота : 400 пикселей
Соотношение сторон : 16:9
Частота кадров : 23,976 кадра/сек
Цветовое пространство : YUV
Субдискретизация насыщенности : 4:2:0
Битовая глубина : 8 бит
Тип развёртки : Прогрессивная
Метод сжатия : С потерями
Бит/(Пиксели*Кадры) : 0.274
Размер потока : 579 Мбайт (68%)
Библиотека кодирования : XviD 65

Аудио #1
Идентификатор : 1
Формат : AC-3
Формат/Информация : Audio Coding 3
Расширение режима : CM (complete main)
Параметр Endianness формата : Big
Идентификатор кодека : 2000
Продолжительность : 42 м.
Вид битрейта : Постоянный
Битрейт : 384 Кбит/сек
Каналы : 6 каналов
Расположение каналов : Front: L C R, Side: L R, LFE
Частота : 48,0 КГц
Битовая глубина : 16 бит
Метод сжатия : С потерями
Размер потока : 118 Мбайт (14%)
Выравнивание : Разделение по промежуткам

Аудио #2
Идентификатор : 2
Формат : AC-3
Формат/Информация : Audio Coding 3
Расширение режима : CM (complete main)
Параметр Endianness формата : Big
Идентификатор кодека : 2000
Продолжительность : 42 м.
Вид битрейта : Постоянный
Битрейт : 384 Кбит/сек
Каналы : 6 каналов
Расположение каналов : Front: L C R, Side: L R, LFE
Частота : 48,0 КГц
Битовая глубина : 16 бит
Метод сжатия : С потерями
Размер потока : 118 Мбайт (14%)
Выравнивание : Разделение по промежуткам
picpicpic
Для увеличения картинки щелкните мышкой по превью

Этот торрент недоступен для скачивания без регистрации, однако доступен по публичной magnet-ссылке (источники с публичных трекеров). Перед использованием ссылки прочтите, пожалуйста Пользовательское соглашение, а также как можно дольше оставайтесь на раздаче! Для того, чтобы скачать сам торрент-файл (который видит больше источников), а также для того, чтобы поблагодарить релизера, вам необходимо зарегистрироваться. Если регистрироваться лень - вы можете также попробовать скачать релиз по нашим партнерским ссылкам ниже.

[underverse.su].t60188.torrent
Трекер: Зарегистрирован   [ 22.11.2015 09:06 ]  

Статус: проверено (by makkol at 22.11.2015 09:39)
Поблагодарили: пока никто не поблагодарил...
Тип торрента: публичный - доступные источники с открытых трекеров: 
Размер: 18,92 GB (занимает 4,32 DVDR, для записи нужно 5 болванок DVDR/RW)
 
 
Похожие темы
Форум Тема Автор Торрент Отв. Посл. сооб.
Зарубежные сериалы Чикаго в огне / Chicago Fire / Сезон 1 (1-24 из 24) (Джо Чаппелль) [2012 г., Драма, WEB-DLRip] VO (Денис Шадинский) + Original ultarasbarcelona
3 | 0

0 | 359

1

21.11.2015 13:12

Зарубежные сериалы Чикаго в огне / Chicago Fire / Сезон 1 (1-24 серии из 24) (Джо Чаппелль, Жан Де Сегонзак, Том ДиЧилло) [2012 г., драма, HDRip] MVO (SDI Media) ultarasbarcelona
2 | 0

0 | 394

3

21.11.2015 13:26

Зарубежные сериалы Чикаго в огне / Chicago Fire / Сезон 2 (1-22 серии из 22) (Джо Чаппелль, Жан Де Сегонзак, Том ДиЧилло) [2013 г., драма, WEB-DLRip] VO (Шадинский) ultarasbarcelona
11 | 2

0 | 326

1

21.11.2015 13:40

Зарубежные сериалы [BD / Remux / BDRip / WEB-DL / HDTV 1080/720р] Чикаго в огне / Chicago Fire / Сезон 1 (1-24 серии из 24) (Джо Чаппелль) [2012 г., Драма, WEB-DL 720p] VO (Денис Шадинский) + Original ultarasbarcelona
2 | 2

0 | 371

1

21.11.2015 12:46

Зарубежные сериалы [BD / Remux / BDRip / WEB-DL / HDTV 1080/720р] Чикаго в огне / Chicago Fire / Сезон 2 (1-22 серии из 22) (Джо Чаппелль) [2013 г., Драма, WEB-DL 1080p] VO (Шадинский) + Original ultarasbarcelona
0 | 0

0 | 361

0

22.11.2015 08:12

Зарубежные сериалы [BD / Remux / BDRip / WEB-DL / HDTV 1080/720р] Чикаго в огне / Chicago Fire / Сезон 3 (1-23 из 23) (Джо Чаппелль, Жан Де Сегонзак, Майкл Словис) [2014 г., Драма, HDTVRip 720p] DVO (Частная студия) ultarasbarcelona
1 | 2

0 | 397

0

22.11.2015 09:00


Яндекс.Метрика powered by Sphinx


В Н И М А Н И Е
Сайт не распространяет и не хранит электронные версии произведений, а лишь бесплатно и без коммерческой выгоды (не требуя взамен платы,
SMS и т.д.) предоставляет доступ к создаваемому пользователями каталогу ссылок на торрент-файлы, которые содержат только списки хеш-сумм.
Убедительная просьба с жалобами обращаться напрямую к пользователю, разместившему торрент файл.

Вверх