Loading...
Error

Барахольщик / Бункер. Там где выхода нет / The Hoarder (Мэтт Уинн) [2015 г., ужасы, триллер, HDRip] DVO

Статистика раздачи
Размер:  1,35 GB   |    Зарегистрирован:  1 год   |    Скачан:  16 раз

Полного источника не было: 4 месяца 29 дней

Сидов:  0  |  0 KB/s  ]   Личеров:  0  |  0 KB/s  ]

* - сиды/пиры с внешних источников

   
 
Автор Сообщение

makkol Пол:Муж

21-Ноя-2015 12:42

Барахольщик / Бункер. Там где выхода нет / The Hoarder


Год выпуска: 2015
Жанр: ужасы, триллер
Производство: Великобритания [Atlantic Picture Company, Sunny Day Media, Tall Man Films]
Режиссер: Мэтт Уинн
В ролях: Миша Бартон, Роберт Неппер, Валин Кэйн, Шарлотта Солт, Эмили Атак, Эндрю Бакли, Эд Купер Кларк, Джэми Бэйкон, Филип Филмар, Джон Секвилл
Сюжет фильма:
Молодая женщина оказавшись в подземном хранилище, попадает в ловушку, где её преследует убийца.

  • Мировая премьера: 26 февраля 2015


Перевод: МЕГАПЫХАРЬ
Озвучивание: RG.paravozik

Качество видео: HDRip

Продолжительность: 01:26:18
Формат: AVI
Видео: XviD, 720x300 (2.40:1), 24.000 fps, 2102 kbps
Аудио: русский, любительский двухголосый закадровый, MP3 2.0, 48 kHz, 128 kbps

Код:

Общее
Полное имя : The.Hoarder.2015.avi
Формат : AVI
Формат/Информация : Audio Video Interleave
Размер файла : 1,35 Гбайт
Продолжительность : 1 ч. 26 м.
Общий поток : 2240 Кбит/сек
Программа кодирования : VirtualDubMod 1.5.10.3 | www.virtualdub-fr.org || (build 2550/release)
Библиотека кодирования : VirtualDubMod build 2550/release

Видео
Идентификатор : 0
Формат : MPEG-4 Visual
Профиль формата : Advanced Simple@L5
Параметр BVOP формата : 2
Параметр QPel формата : Нет
Параметр GMC формата : Без точки перехода
Параметр матрицы формата : Default (MPEG)
Идентификатор кодека : XVID
Идентификатор кодека/Подсказка : XviD
Продолжительность : 1 ч. 26 м.
Битрейт : 2102 Кбит/сек
Ширина : 720 пикселей
Высота : 300 пикселей
Соотношение сторон : 2,40:1
Частота кадров : 24,000 кадра/сек
Цветовое пространство : YUV
Субдискретизация насыщенности : 4:2:0
Битовая глубина : 8 бит
Тип развёртки : Прогрессивная
Метод сжатия : С потерями
Бит/(Пиксели*Кадры) : 0.406
Размер потока : 1,27 Гбайт (94%)
Библиотека кодирования : XviD 1.2.1 (UTC 2008-12-04)

Аудио
Идентификатор : 1
Формат : MPEG Audio
Версия формата : Version 1
Профиль формата : Layer 3
Идентификатор кодека : 55
Идентификатор кодека/Подсказка : MP3
Продолжительность : 1 ч. 26 м.
Вид битрейта : Постоянный
Битрейт : 128 Кбит/сек
Каналы : 2 канала
Частота : 48,0 КГц
Метод сжатия : С потерями
Размер потока : 79,0 Мбайт (6%)
Выравнивание : Соединение по промежуткам
Продолжительность промежутка : 42 мс. (1,00 видеокадр)
Время предзагрузки промежутка : 504 мс.
Библиотека кодирования : LAME3.99r
Настройки программы : -m s -V 4 -q 2 -lowpass 17 -b 128
Релиз от:

picpicpicpicpic
Для увеличения картинки щелкните мышкой по превью

Этот торрент недоступен для скачивания без регистрации, однако доступен по публичной magnet-ссылке (источники с публичных трекеров). Перед использованием ссылки прочтите, пожалуйста Пользовательское соглашение, а также как можно дольше оставайтесь на раздаче! Для того, чтобы скачать сам торрент-файл (который видит больше источников), а также для того, чтобы поблагодарить релизера, вам необходимо зарегистрироваться. Если регистрироваться лень - вы можете также попробовать скачать релиз по нашим партнерским ссылкам ниже.

[underverse.su].t60158.torrent
Трекер: Зарегистрирован   [ 21.11.2015 12:42 ]  

Статус: проверено (by makkol at 21.11.2015 15:39)
Поблагодарили: пока никто не поблагодарил...
Тип торрента: публичный - доступные источники с открытых трекеров: 
Размер: 1,35 GB (занимает 0,31 DVDR, для записи нужно 1 болванка DVDR/RW)
 
 

Яндекс.Метрика powered by Sphinx


В Н И М А Н И Е
Сайт не распространяет и не хранит электронные версии произведений, а лишь бесплатно и без коммерческой выгоды (не требуя взамен платы,
SMS и т.д.) предоставляет доступ к создаваемому пользователями каталогу ссылок на торрент-файлы, которые содержат только списки хеш-сумм.
Убедительная просьба с жалобами обращаться напрямую к пользователю, разместившему торрент файл.

Вверх