Loading...
Error

Железная девушка: Убийственное оружие / Iron Girl: Ultimate Weapon (Кенити Фудзивара) [2015 г., фантастика, боевик, комедия, эротика, HDRip] DVO

Статистика раздачи
Размер:  1,37 GB   |    Зарегистрирован:  1 год   |    Скачан:  75 раз

Полного источника не было: 6 дней

Сидов:  0  |  0 KB/s  ]   Личеров:  0  |  0 KB/s  ]

* - сиды/пиры с внешних источников

   
 
Автор Сообщение

makkol Пол:Муж

20-Ноя-2015 22:42

Железная девушка: Убийственное оружие / Iron Girl: Ultimate Weapon


Год выпуска: 2015
Жанр: фантастика, боевик, комедия, эротика
Производство: Япония [Shibuya Productions]
Режиссер: Кенити Фудзивара
В ролях: Асами, Кирара Асука, Хироаки Иванага, Рюносукэ Кавай, Асука Киши, Юри Моришита
Сюжет фильма:
В недалеком будущем, в мире царит беззаконие, человечество находится на грани вымирания, а города контролируют банды головорезов. Курису Саотоме (Асука Кирара) – наемная убийца. Она носит бронированный костюм, обладающий большой силой, и известна под именем «Стальная телка». Курису Саотоме не помнит кто она и откуда приехала. Чтобы восстановить память, она продолжает свою одинокую борьбу, истребляя головорезов.

  • Мировая премьера: 17 января 2015


Перевод: akira9
Озвучивание: den904 & DeadSno

Качество видео: HDRip

Продолжительность: 01:24:01
Формат: AVI
Видео: XviD, 720x400 (16:9), 23.976 fps, 2125 kbps
Аудио: русский, любительский двухголосый закадровый, AC3 2.0, 48 kHz, 192 kbps

Код:

General
Complete name : Zheleznaja.devushka.Ubiystvennoe.oruzhie.2015.L2.HDRip.avi
Format : AVI
Format/Info : Audio Video Interleave
File size : 1.37 GiB
Duration : 1h 24mn
Overall bit rate : 2 327 Kbps
Writing application : VirtualDubMod 1.5.10.3 | www.virtualdub-fr.org || (build 2550/release)
Writing library : VirtualDubMod build 2550/release
Video #0
ID : 0
Format : MPEG-4 Visual
Format profile : Advanced Simple@L5
Format settings, BVOP : 1
Format settings, QPel : No
Format settings, GMC : No warppoints
Format settings, Matrix : Custom
Codec ID : XVID
Codec ID/Hint : XviD
Duration : 1h 24mn
Bit rate : 2 125 Kbps
Width : 720 pixels
Height : 400 pixels
Display aspect ratio : 16:9
Frame rate : 23.976 fps
Color space : YUV
Chroma subsampling : 4:2:0
Bit depth : 8 bits
Scan type : Progressive
Compression mode : Lossy
Bits/(Pixel*Frame) : 0.308
Stream size : 1.25 GiB (91%)
Writing library : XviD 73
Audio #1
ID : 1
Format : AC-3
Format/Info : Audio Coding 3
Mode extension : CM (complete main)
Format settings, Endianness : Big
Codec ID : 2000
Duration : 1h 24mn
Bit rate mode : Constant
Bit rate : 192 Kbps
Channel(s) : 2 channels
Channel positions : Front: L R
Sampling rate : 48.0 KHz
Bit depth : 16 bits
Compression mode : Lossy
Stream size : 115 MiB (8%)
Alignment : Split accross interleaves
Interleave, duration : 42 ms (1.00 video frame)
Interleave, preload duration : 500 ms
picpicpicpicpic
Для увеличения картинки щелкните мышкой по превью

Этот торрент недоступен для скачивания без регистрации, однако доступен по публичной magnet-ссылке (источники с публичных трекеров). Перед использованием ссылки прочтите, пожалуйста Пользовательское соглашение, а также как можно дольше оставайтесь на раздаче! Для того, чтобы скачать сам торрент-файл (который видит больше источников), а также для того, чтобы поблагодарить релизера, вам необходимо зарегистрироваться. Если регистрироваться лень - вы можете также попробовать скачать релиз по нашим партнерским ссылкам ниже.

[underverse.su].t60136.torrent
Трекер: Зарегистрирован   [ 20.11.2015 22:42 ]  

Статус: проверено (by Паукан at 21.11.2015 11:28)
Поблагодарили: 3 человека
Тип торрента: публичный - доступные источники с открытых трекеров: 
Размер: 1,37 GB (занимает 0,31 DVDR, для записи нужно 1 болванка DVDR/RW)
 
 
Похожие темы
Форум Тема Автор Торрент Отв. Посл. сооб.
Зарубежное кино [HDDVDRip / BDRip / WEB-DL / HDTV 1080/720р] Железная девушка: Убийственное оружие / Iron Girl: Ultimate Weapon (Кенити Фудзивара) [2015 г., фантастика, боевик, комедия, эротика, BDRip 720p] DVO + Original makkol
7 | 1

1 | 1323

46

21.11.2015 22:17


Яндекс.Метрика powered by Sphinx


В Н И М А Н И Е
Сайт не распространяет и не хранит электронные версии произведений, а лишь бесплатно и без коммерческой выгоды (не требуя взамен платы,
SMS и т.д.) предоставляет доступ к создаваемому пользователями каталогу ссылок на торрент-файлы, которые содержат только списки хеш-сумм.
Убедительная просьба с жалобами обращаться напрямую к пользователю, разместившему торрент файл.

Вверх