Loading...
Error

Не грози южному централу, попивая сок у себя в квартале / Don't Be a Menace to South Central While Drinking Your Juice in the Hood (Пэрис Барклай / Paris Barclay) [1996 г., криминальная комедия, BDRip-AVC] 3xAVO + MVO+ Original + Subs

Статистика раздачи
Размер:  2,74 GB   |    Зарегистрирован:  1 год   |    Скачан:  18 раз

Полного источника не было: 13 дней

Сидов:  0  |  0 KB/s  ]   Личеров:  0  |  0 KB/s  ]

* - сиды/пиры с внешних источников

   
 
Автор Сообщение

s_rustam Пол:Муж

20-Ноя-2015 05:23

Не грози южному централу, попивая сок у себя в квартале / Don't Be a Menace to South Central While Drinking Your Juice in the Hood


Год выпуска: 1996
Жанр: криминальная комедия
Страна: США
Режиссер: Пэрис Барклай / Paris Barclay
В ролях: Шоун Уайанс, Марлон Уайанс, Трэйси Черелл Джонс, Крис Спенсер, Сули МакКалло, Даррел Хит, Хелен Мартин, Айзиа Барнс, Ламард Дж. Тейт, Кинен Айвори Уайанс
Сюжет фильма:
Молодой афроамериканец по прозвищу Пепельница переезжает в Лос-Анджелес со своим отцом и бабушкой. Пепельница гордится тем, что они с отцом выглядят ровесниками, это, по его мнению, «очень круто». Гордится он и своей бабушкой, которая в свои-то преклонные годы покуривает и не стесняется крепких словечек.
Вскоре Пепельница знакомится со своим кузеном по прозвищу Цепной Пес. Этот парень — гангстер, в его личном арсенале не только пистолеты и автомат, но и термоядерная боеголовка — «для самозащиты». Пепельница должен выбрать свой дальнейший путь в жизни: он может быть «просто хорошим чернокожим» или стать «опасным чернокожим», примкнув к банде своего кузена.

  • Мировая премьера: 12 января 1996


Качество видео: BDRip-AVC

Продолжительность: 01:28:52

Формат: MKV

Видео: MPEG-4 AVC, x264, High@L4.0, 1088x612 (16:9), ~2899 kbps, 23.976 fps, 0.178 b/px

Аудио #1: Русский (AVO, Д. Пучков / Goblin), AC3, CBR 448 kbps, 6 ch, 48 kHz
Аудио #2: Русский (AVO, П. Санаев), AC3, CBR 224 kbps, 2 ch, 48 kHz
Аудио #3: Русский (MVO), AC3, CBR 384 kbps, 6 ch, 48 kHz
Аудио #4: Русский (AVO, А. Кашкин), AC3, CBR 192 kbps, 2 ch, 48 kHz
Аудио #5: Английский (оригинал), AC3, CBR 448 kbps, 6 ch, 48 kHz

Cубтитры: русские вшитые отключаемые (Goblin)

Код:

General
Unique ID                        : 185161374319695656202937609864080864454 (0x8B4CC895B98E4D05AA727119645934C6)
Complete name                    : Don't.Be.A.Menace.To.South.Central.While.Drinking.Your.Juice.In.The.Hood.1996.BDRip-AVC.4xRus.Eng.Subs.tRuAVC.mkv
Format                           : Matroska
File size                        : 2.74 GiB
Duration                         : 1h 29mn
Overall bit rate                 : 4 387 Kbps
Encoded date                     : UTC 2011-07-24 19:26:12
Writing application              : mkvmerge v4.0.0 ('The Stars were mine') built on Jun  6 2010 16:18:42
Writing library                  : libebml v1.0.0 + libmatroska v1.0.0

Video
ID                               : 1
Format                           : AVC
Format/Info                      : Advanced Video Codec
Format profile                   : High@L4.0
Format settings, CABAC           : Yes
Format settings, ReFrames        : 10 frames
Codec ID                         : V_MPEG4/ISO/AVC
Duration                         : 1h 29mn
Bit rate                         : 2 796 Kbps
Width                            : 1 088 pixels
Height                           : 612 pixels
Display aspect ratio             : 16:9
Frame rate                       : 23.976 fps
Color space                      : YUV
Chroma subsampling               : 4:2:0
Bit depth                        : 8 bits
Scan type                        : Progressive
Bits/(Pixel*Frame)               : 0.175
Stream size                      : 1.75 GiB (64%)
Title                            : Не грози южному централу, попивая сок у себя на квартале / Don't Be A Menace To South Central While Drinking Your Juice In The Hood - by Juicy_J - x264; High@L4.0; 1088x612 (16:9); ~2899 kbps; 23.976 fps; 0.178 b/px
Writing library                  : x264 core 115 r2008 4c552d8
Encoding settings                : cabac=1 / ref=10 / deblock=1:-2:-2 / analyse=0x3:0x113 / me=umh / subme=10 / psy=1 / psy_rd=1.15:0.00 / mixed_ref=1 / me_range=40 / chroma_me=1 / trellis=2 / 8x8dct=1 / cqm=0 / deadzone=21,11 / fast_pskip=1 / chroma_qp_offset=-2 / threads=12 / sliced_threads=0 / nr=0 / decimate=1 / interlaced=0 / bluray_compat=0 / constrained_intra=0 / bframes=8 / b_pyramid=2 / b_adapt=2 / b_bias=0 / direct=3 / weightb=1 / open_gop=0 / weightp=2 / keyint=250 / keyint_min=23 / scenecut=40 / intra_refresh=0 / rc=crf / mbtree=0 / crf=19.0 / qcomp=0.65 / qpmin=0 / qpmax=69 / qpstep=4 / ip_ratio=1.40 / pb_ratio=1.30 / aq=1:0.90
Language                         : English
Matrix coefficients              : BT.709-5, BT.1361, IEC 61966-2-4 709, SMPTE RP177

Audio #1
ID                               : 2
Format                           : AC-3
Format/Info                      : Audio Coding 3
Mode extension                   : CM (complete main)
Codec ID                         : A_AC3
Duration                         : 1h 29mn
Bit rate mode                    : Constant
Bit rate                         : 448 Kbps
Channel(s)                       : 6 channels
Channel positions                : Front: L C R, Side: L R, LFE
Sampling rate                    : 48.0 KHz
Bit depth                        : 16 bits
Compression mode                 : Lossy
Stream size                      : 287 MiB (10%)
Title                            : Русский (Д. Пучков / Goblin); AC3; CBR 448 kbps; 6 ch; 48 kHz
Language                         : Russian

Audio #2
ID                               : 3
Format                           : AC-3
Format/Info                      : Audio Coding 3
Mode extension                   : CM (complete main)
Codec ID                         : A_AC3
Duration                         : 1h 29mn
Bit rate mode                    : Constant
Bit rate                         : 192 Kbps
Channel(s)                       : 3 channels
Channel positions                : Front: L R, LFE
Sampling rate                    : 48.0 KHz
Bit depth                        : 16 bits
Compression mode                 : Lossy
Stream size                      : 123 MiB (4%)
Title                            : Русский (MVO); AC3; CBR 192 kbps; 2 ch; 48 kHz
Language                         : Russian

Audio #3
ID                               : 4
Format                           : AC-3
Format/Info                      : Audio Coding 3
Mode extension                   : CM (complete main)
Codec ID                         : A_AC3
Duration                         : 1h 29mn
Bit rate mode                    : Constant
Bit rate                         : 224 Kbps
Channel(s)                       : 2 channels
Channel positions                : Front: L R
Sampling rate                    : 48.0 KHz
Bit depth                        : 16 bits
Compression mode                 : Lossy
Stream size                      : 143 MiB (5%)
Title                            : Русский (AVO; П. Санаев); AC3; CBR 224 kbps; 2 ch; 48 kHz
Language                         : Russian

Audio #4
ID                               : 5
Format                           : AC-3
Format/Info                      : Audio Coding 3
Mode extension                   : CM (complete main)
Codec ID                         : A_AC3
Duration                         : 1h 29mn
Bit rate mode                    : Constant
Bit rate                         : 192 Kbps
Channel(s)                       : 2 channels
Channel positions                : Front: L R
Sampling rate                    : 48.0 KHz
Bit depth                        : 16 bits
Compression mode                 : Lossy
Stream size                      : 123 MiB (4%)
Title                            : Русский (AVO; А. Кашкин); AC3; CBR 192 kbps; 2 ch; 48 kHz
Language                         : Russian

Audio #5
ID                               : 6
Format                           : AC-3
Format/Info                      : Audio Coding 3
Mode extension                   : CM (complete main)
Codec ID                         : A_AC3
Duration                         : 1h 29mn
Bit rate mode                    : Constant
Bit rate                         : 448 Kbps
Channel(s)                       : 6 channels
Channel positions                : Front: L C R, Side: L R, LFE
Sampling rate                    : 48.0 KHz
Bit depth                        : 16 bits
Compression mode                 : Lossy
Stream size                      : 287 MiB (10%)
Title                            : Английский; AC3; CBR 448 kbps; 6 ch; 48 kHz
Language                         : English

Text
ID                               : 7
Format                           : UTF-8
Codec ID                         : S_TEXT/UTF8
Codec ID/Info                    : UTF-8 Plain Text
Title                            : Русские (Гоблин)
Language                         : Russian

Menu
00:00:00.000                     : en:Living in the Hood
00:09:19.025                     : en:I'll Suck Your Dick Man
00:12:44.998                     : en:Cousin Loc Dog
00:19:00.339                     : en:That's Dashiki
00:26:09.735                     : en:Forties & 9's
00:31:05.797                     : en:Old Grangster Grandma
00:36:35.460                     : en:Test Drivers
00:40:58.489                     : en:Kinky With Kool-Aid
00:48:38.415                     : en:Arrested for Being Black
00:53:32.476                     : en:Playing Po'Nopoly
00:56:08.465                     : en:Porch Dreams
01:02:25.108                     : en:Crazy Legs
01:09:05.341                     : en:That's Some Chronic!
01:12:58.040                     : en:Getting Crazy
01:17:27.142                     : en:Drive by
picpicpicpic
picpic
Для увеличения картинки щелкните мышкой по превью

Этот торрент недоступен для скачивания без регистрации, однако доступен по публичной magnet-ссылке (источники с публичных трекеров). Перед использованием ссылки прочтите, пожалуйста Пользовательское соглашение, а также как можно дольше оставайтесь на раздаче! Для того, чтобы скачать сам торрент-файл (который видит больше источников), а также для того, чтобы поблагодарить релизера, вам необходимо зарегистрироваться. Если регистрироваться лень - вы можете также попробовать скачать релиз по нашим партнерским ссылкам ниже.

[underverse.su].t60106.torrent
Трекер: Зарегистрирован   [ 20.11.2015 05:23 ]  

Статус: проверено (by makkol at 20.11.2015 11:05)
Поблагодарили: 1 человек
Тип торрента: публичный - доступные источники с открытых трекеров: 
Размер: 2,74 GB (занимает 0,63 DVDR, для записи нужно 1 болванка DVDR/RW)
 
 


Последний раз редактировалось: s_rustam (20.11.2015 09:26), всего редактировалось 3 раз(а)

makkol Пол:Муж

20-Ноя-2015 08:53

Информация о субтитрах? (А они там есть, русские, Гоблина)
Ссылка на IMDb?
Аудио#1* - звёздочка, это что?
Скриншоты, увеличивающиеся по клику, не нужно прятать под спойлер.
Качество видео здесь BDRip-AVC.
Вообще, для такой сложной раздачи с большим количеством дорог желательно добавлять MediaInfo.

s_rustam Пол:Муж

20-Ноя-2015 09:27

makkol
Понял сейчас исправлю!

добавлено спустя 4 минуты 54 секунды:

makkol
Всё исправил, кроме MediaInfo, но в следующий раз всё сделаю.

Яндекс.Метрика powered by Sphinx


В Н И М А Н И Е
Сайт не распространяет и не хранит электронные версии произведений, а лишь бесплатно и без коммерческой выгоды (не требуя взамен платы,
SMS и т.д.) предоставляет доступ к создаваемому пользователями каталогу ссылок на торрент-файлы, которые содержат только списки хеш-сумм.
Убедительная просьба с жалобами обращаться напрямую к пользователю, разместившему торрент файл.

Вверх