Loading...
Error

Бегущий в лабиринте: Испытание огнём / Maze Runner: The Scorch Trials (Уэс Болл) [2015 г., фантастика, боевик, триллер, HDRip] Dub

Статистика раздачи
Размер:  2,05 GB   |    Зарегистрирован:  1 год   |    Скачан:  178 раз

Полного источника не было: 2 часа 21 минута

Сидов:  0  |  0 KB/s  ]   Личеров:  0  |  0 KB/s  ]

* - сиды/пиры с внешних источников

   
 
Автор Сообщение

makkol Пол:Муж

19-Ноя-2015 22:29

Бегущий в лабиринте: Испытание огнём / Maze Runner: The Scorch Trials
«Лабиринт был всего лишь началом»


Год выпуска: 2015
Жанр: фантастика, боевик, триллер
Производство: США [TSG Entertainment, Temple Hill Entertainment, Gotham Group]
Режиссер: Уэс Болл
В ролях: Дилан О’Брайен, Ки Хонг Ли, Кая Скоделарио, Томас Сэнгстер, Декстер Дарден, Алекс Дж. Флорес, Джейкоб Лофленд, Роза Салазар, Джанкарло Эспозито, Патришия Кларксон
Сюжет фильма:
Лабиринт пройден, но Томасу, Терезе, Минхо и прочим глэйдерам не приходится расслабляться. Таинственное руководство ПОРОКА — секретной организации, устроившей гонки на выживание — назначает ребятам новые, смертельно опасные испытания. На сей раз их ждет переход по раскаленной пустыне и встреча с жертвами неизлечимой болезни, которые отличаются буйным нравом и непредсказуемым поведением.

  • Мировая премьера: 7 сентября 2015
  • Российская премьера: 17 сентября 2015


Качество видео: HDRip

Продолжительность: 02:11:42
Формат: AVI
Видео: XviD, 720x304 (2.35:1), 23.976 fps, 1776 kbps
Аудио: русский, дублированный (лицензия), AC3 5.1, 48 kHz, 448 kbps

Код:

Общее
Полное имя                               : Begus41y.v.Laber1nte.2.2015.D.HDRip.2100Mb.avi
Формат                                   : AVI
Формат/Информация                        : Audio Video Interleave
Размер файла                             : 2,05 Гбайт
Продолжительность                        : 2 ч. 11 м.
Общий поток                              : 2285 Кбит/сек
Программа кодирования                    : VirtualDubMod 1.5.10.2 (build 2540/release)
Библиотека кодирования                   : VirtualDubMod build 2540/release

Видео
Идентификатор                            : 0
Формат                                   : MPEG-4 Visual
Профиль формата                          : Advanced Simple@L5
Параметр BVOP формата                    : 2
Параметр QPel формата                    : Нет
Параметр GMC формата                     : Без точки перехода
Параметр матрицы формата                 : Default (MPEG)
Идентификатор кодека                     : XVID
Идентификатор кодека/Подсказка           : XviD
Продолжительность                        : 2 ч. 11 м.
Битрейт                                  : 1776 Кбит/сек
Ширина                                   : 720 пикселей
Высота                                   : 304 пикселя
Соотношение сторон                       : 2,35:1
Частота кадров                           : 23,976 кадра/сек
Цветовое пространство                    : YUV
Субдискретизация насыщенности            : 4:2:0
Битовая глубина                          : 8 бит
Тип развёртки                            : Прогрессивная
Метод сжатия                             : С потерями
Бит/(Пиксели*Кадры)                      : 0.196
Размер потока                            : 1,55 Гбайт (76%)
Библиотека кодирования                   : XviD 1.2.1 (UTC 2008-12-04)

Аудио
Идентификатор                            : 1
Формат                                   : AC-3
Формат/Информация                        : Audio Coding 3
Расширение режима                        : CM (complete main)
Параметр Endianness формата              : Big
Идентификатор кодека                     : 2000
Продолжительность                        : 2 ч. 11 м.
Вид битрейта                             : Постоянный
Битрейт                                  : 448 Кбит/сек
Каналы                                   : 6 каналов
Расположение каналов                     : Front: L C R, Side: L R, LFE
Частота                                  : 48,0 КГц
Метод сжатия                             : С потерями
Размер потока                            : 422 Мбайт (30%)
Выравнивание                             : Разделение по промежуткам
Продолжительность промежутка             : 42  мс. (1,00 видеокадр)
Время предзагрузки промежутка            : 500  мс.
picpicpicpicpic
Для увеличения картинки щелкните мышкой по превью

Этот торрент недоступен для скачивания без регистрации, однако доступен по публичной magnet-ссылке (источники с публичных трекеров). Перед использованием ссылки прочтите, пожалуйста Пользовательское соглашение, а также как можно дольше оставайтесь на раздаче! Для того, чтобы скачать сам торрент-файл (который видит больше источников), а также для того, чтобы поблагодарить релизера, вам необходимо зарегистрироваться. Если регистрироваться лень - вы можете также попробовать скачать релиз по нашим партнерским ссылкам ниже.

[underverse.su].t60099.torrent
Трекер: Зарегистрирован   [ 19.11.2015 22:29 ]  

Статус: проверено (by makkol at 19.11.2015 22:59)
Поблагодарили: 13 человек
Тип торрента: публичный - доступные источники с открытых трекеров: 
Размер: 2,05 GB (занимает 0,47 DVDR, для записи нужно 1 болванка DVDR/RW)
 
 
Похожие темы
Форум Тема Автор Торрент Отв. Посл. сооб.
Зарубежное кино [DVDRip, Low-Res HDRip, и т.д.] Бегущий в лабиринте / The Maze Runner (Уэс Болл / Wes Ball) [2014 г., фантастика, боевик, триллер, детектив, HDRip] Dub [Лицензия] Паукан
105 | 0

0 | 3988

100

19.12.2014 13:26

Зарубежное кино [DVDRip, Low-Res HDRip, и т.д.] Бегущий в лабиринте / The Maze Runner (Уэс Болл) [2014 г., фантастика, триллер, приключения, HDRip] Dub [Лицензия] + Dub (Ukr) + Original Паукан
15 | 0

0 | 3490

12

19.12.2014 13:49

Зарубежное кино [DVDRip, Low-Res HDRip, и т.д.] Бегущий в лабиринте / The Maze Runner (Уэс Болл / Wes Ball) [2014 г., фантастика, боевик, триллер, детектив, BDRip-AVC] Dub + Ukr + Original (Eng) + Subs 90ytr90
28 | 0

0 | 430

7

05.01.2015 11:25

Зарубежное кино [DVDRip, Low-Res HDRip, и т.д.] Бегущий в лабиринте / The Maze Runner (Уэс Болл / Wes Ball) [2014 г., фантастика, боевик, триллер, детектив, BDRip-AVC] Dub + Subs 90ytr90
15 | 0

0 | 490

16

05.01.2015 11:44

Зарубежное кино [DVDRip, Low-Res HDRip, и т.д.] Бегущий в лабиринте / The Maze Runner (Уэс Болл / Wes Ball) [2014 г., фантастика, боевик, триллер, детектив, HDRip] Dub 90ytr90
96 | 4

0 | 501

16

05.01.2015 11:59

Зарубежное кино [DVDRip, Low-Res HDRip, и т.д.] Бегущий в лабиринте / The Maze Runner (Уэс Болл / Wes Ball) [2014 г., фантастика, триллер, приключения, BDRip] Dub + Original (Eng) + Sub (Rus, Eng) 90ytr90
2 | 0

0 | 416

20

10.02.2015 20:32

Зарубежное кино [DVD / HDDVD / BD / Remux] Бегущий в лабиринте / The Maze Runner (Уэс Болл) [2014 г., фантастика, боевик, триллер, детектив, экранизация, Blu-Ray Remux] Dub (Rus,Ukr) + Original + Sub (Rus,Ukr,Eng) Паукан
4 | 0

0 | 3789

22

19.12.2014 14:01

Зарубежное кино [HDDVDRip / BDRip / WEB-DL / HDTV 1080/720р] Бегущий в лабиринте / The Maze Runner (Уэс Болл / Wes Ball) [2014 г., фантастика, триллер, приключения, BDRip 720p] Dub + Sub (Rus,Ukr,Eng) Паукан
61 | 0

0 | 3684

48

19.12.2014 13:54

Зарубежное кино [HDDVDRip / BDRip / WEB-DL / HDTV 1080/720р] Бегущий в лабиринте / The Maze Runner (Уэс Болл) [2014 г., фантастика, боевик, триллер, детектив, экранизация, BDRip 1080p] Dub (Rus,Ukr) + Original + Sub (Rus,Ukr,Eng) Паукан
1 | 0

0 | 3929

57

19.12.2014 14:03

Зарубежное кино [HDDVDRip / BDRip / WEB-DL / HDTV 1080/720р] Бегущий в лабиринте / The Maze Runner (Уэс Болл / Wes Ball) [2014 г., фантастика, боевик, триллер, детектив, BDRip 720p] Dub + Original (Eng) + Subs 90ytr90
24 | 0

0 | 621

14

05.01.2015 11:04


Яндекс.Метрика powered by Sphinx


В Н И М А Н И Е
Сайт не распространяет и не хранит электронные версии произведений, а лишь бесплатно и без коммерческой выгоды (не требуя взамен платы,
SMS и т.д.) предоставляет доступ к создаваемому пользователями каталогу ссылок на торрент-файлы, которые содержат только списки хеш-сумм.
Убедительная просьба с жалобами обращаться напрямую к пользователю, разместившему торрент файл.

Вверх