Loading...
Error

Коварный / Infidus (Джулио Де Санти) [2015 г., драма, криминал, DVDRip] VO (Харченко) + VO (Мегапыхарь)

Статистика раздачи
Размер:  1,37 GB   |    Зарегистрирован:  1 год   |    Скачан:  17 раз

Полного источника не было: 3 месяца 7 дней

Сидов:  0  |  0 KB/s  ]   Личеров:  0  |  0 KB/s  ]

* - сиды/пиры с внешних источников

   
 
Автор Сообщение

makkol Пол:Муж

19-Ноя-2015 13:50

Коварный / Infidus


Год выпуска: 2015
Жанр: драма, криминал
Производство: Италия [Necrostorm]
Режиссер: Джулио Де Санти
В ролях: Бонини Мино, Массимо Карателли, Маурицио Дзаффино, Стефания Бонини, Андреа Ди Спирито, Уолтер Монтано
Сюжет фильма:
Недалеко от столицы Италии жизнь идет привычно и размеренно. В ходе этой жизни тесно пересекаются два человека – Массимо, который только, что потерял супругу, в результате убийства бандитами, отчаянно старается отомстить преступникам, и Барарба, который только вышел из заключения, узнавший о том, что его родной брат член банды. Теперь Барабба осознает, что изменить такое положение вещей можно только насилием и кровопролитием.

  • Мировая премьера: 20 марта 2015


Качество видео: DVDRip

Продолжительность: 01:15:58
Формат: AVI
Видео: XviD, 720x416, 25.000 fps, 2185 kbps
Аудио #1: русский, любительский одноголосый закадровый (Александр Харченко aka Агент Смит по субтитрам МЕГАПЫХАРЬ), AC3 2.0, 48 kHz, 192 kbps
Аудио #2: русский, любительский одноголосый закадровый (МЕГАПЫХАРЬ), AC3 2.0, 48 kHz, 192 kbps

Код:

General
Complete name : Infidus(2015)avi.avi
Format : AVI
Format/Info : Audio Video Interleave
File size : 1.37 GiB
Duration : 1h 15mn
Overall bit rate : 2 584 Kbps
Writing application : VirtualDubMod 1.5.10.2 (build 2540/release)
Writing library : VirtualDubMod build 2540/release

Video
ID : 0
Format : MPEG-4 Visual
Format profile : Advanced Simple@L5
Format settings, BVOP : No
Format settings, QPel : No
Format settings, GMC : No warppoints
Format settings, Matrix : Custom
Codec ID : XVID
Codec ID/Hint : XviD
Duration : 1h 15mn
Bit rate : 2 185 Kbps
Width : 720 pixels
Height : 416 pixels
Display aspect ratio : 1.731
Frame rate : 25.000 fps
Color space : YUV
Chroma subsampling : 4:2:0
Bit depth : 8 bits
Scan type : Progressive
Compression mode : Lossy
Bits/(Pixel*Frame) : 0.292
Stream size : 1.16 GiB (85%)
Writing library : XviD 1.2.0.dev47 (UTC 2006-11-01)

Audio #1
ID : 1
Format : AC-3
Format/Info : Audio Coding 3
Mode extension : CM (complete main)
Format settings, Endianness : Big
Codec ID : 2000
Duration : 1h 15mn
Bit rate mode : Constant
Bit rate : 192 Kbps
Channel(s) : 2 channels
Channel positions : Front: L R
Sampling rate : 48.0 KHz
Bit depth : 16 bits
Compression mode : Lossy
Stream size : 104 MiB (7%)
Alignment : Split accross interleaves
Interleave, duration : 40 ms (1.00 video frame)
Interleave, preload duration : 500 ms

Audio #2
ID : 2
Format : AC-3
Format/Info : Audio Coding 3
Mode extension : CM (complete main)
Format settings, Endianness : Big
Codec ID : 2000
Duration : 1h 15mn
Bit rate mode : Constant
Bit rate : 192 Kbps
Channel(s) : 2 channels
Channel positions : Front: L R
Sampling rate : 48.0 KHz
Bit depth : 16 bits
Compression mode : Lossy
Stream size : 104 MiB (7%)
Alignment : Split accross interleaves
Interleave, duration : 40 ms (1.00 video frame)
Interleave, preload duration : 500 ms
picpicpicpicpic
Для увеличения картинки щелкните мышкой по превью

Этот торрент недоступен для скачивания без регистрации, однако доступен по публичной magnet-ссылке (источники с публичных трекеров). Перед использованием ссылки прочтите, пожалуйста Пользовательское соглашение, а также как можно дольше оставайтесь на раздаче! Для того, чтобы скачать сам торрент-файл (который видит больше источников), а также для того, чтобы поблагодарить релизера, вам необходимо зарегистрироваться. Если регистрироваться лень - вы можете также попробовать скачать релиз по нашим партнерским ссылкам ниже.

[underverse.su].t60082.torrent
Трекер: Зарегистрирован   [ 19.11.2015 13:50 ]  

Статус: проверено (by makkol at 19.11.2015 14:19)
Поблагодарили: пока никто не поблагодарил...
Тип торрента: публичный - доступные источники с открытых трекеров: 
Размер: 1,37 GB (занимает 0,31 DVDR, для записи нужно 1 болванка DVDR/RW)
 
 

makkol Пол:Муж

19-Ноя-2015 14:02

В фильме много сцен жестокости и насилия. Прежде чем скачивать, посмотрите трейлер, может оно вам и не нужно... :shock:

Яндекс.Метрика powered by Sphinx


В Н И М А Н И Е
Сайт не распространяет и не хранит электронные версии произведений, а лишь бесплатно и без коммерческой выгоды (не требуя взамен платы,
SMS и т.д.) предоставляет доступ к создаваемому пользователями каталогу ссылок на торрент-файлы, которые содержат только списки хеш-сумм.
Убедительная просьба с жалобами обращаться напрямую к пользователю, разместившему торрент файл.

Вверх