Loading...
Error

Призраки: Лучшая участь / Spooks: The Greater Good (Бхарат Наллури) [2015 г., триллер, драма, HDRip] MVO

Статистика раздачи
Размер:  1,37 GB   |    Зарегистрирован:  1 год   |    Скачан:  27 раз

Полного источника не было: 6 дней

Сидов:  0  |  0 KB/s  ]   Личеров:  0  |  0 KB/s  ]

* - сиды/пиры с внешних источников

   
 
Автор Сообщение

makkol Пол:Муж

19-Ноя-2015 11:27

Призраки: Лучшая участь / Spooks: The Greater Good


Год выпуска: 2015
Жанр: триллер, драма
Производство: Великобритания [Creative England, Isle of Man Film Ltd., Kudos Film and Television, Pinewood Pictures, Shine Pictures, Shotz Fiction Film]
Режиссер: Бхарат Наллури
В ролях: Кит Харингтон, Таппенс Мидлтон, Лара Пулвер, Дэвид Хэрвуд, Элиес Габел, Дженнифер Или, Питер Фёрт, Элинор Мацуура, Тим МакИннерни, Оливер Гилберт
Сюжет фильма:
Когда террорист убегает из-под опеки в ходе передачи, Уилл Кромби должен объединиться с опальным шефом разведки MI5 Гарри Пирсом, чтобы разыскать его перед неминуемой террористической атакой на Лондон.

  • Мировая премьера: 8 мая 2015


Качество видео: HDRip

Продолжительность: 01:43:47
Формат: AVI
Видео: XviD, 720x304 (2.35:1), 24.000 fps, 1428 kbps
Аудио: русский, любительский многоголосый закадровый, AC3 5.1, 48 kHz, 448 kbps

Код:

General
Complete name                  : Pry3raky.Luchshaya.Ucyast.2015.MVO.HDRip.1400MB.avi
Format                         : AVI
Format/Info                    : Audio Video Interleave
File size                      : 1.37 GiB
Duration                       : 1h 43mn
Overall bit rate               : 1 885 Kbps
Writing application            : VirtualDubMod 1.5.10.2 (build 2540/release)
Writing library                : VirtualDubMod build 2540/release

Video
ID                             : 0
Format                         : MPEG-4 Visual
Format profile                 : Advanced Simple@L5
Format settings, BVOP          : 2
Format settings, QPel          : No
Format settings, GMC           : No warppoints
Format settings, Matrix        : Default (MPEG)
Codec ID                       : XVID
Codec ID/Hint                  : XviD
Duration                       : 1h 43mn
Bit rate                       : 1 428 Kbps
Width                          : 720 pixels
Height                         : 304 pixels
Display aspect ratio           : 2.35:1
Frame rate                     : 24.000 fps
Color space                    : YUV
Chroma subsampling             : 4:2:0
Bit depth                      : 8 bits
Scan type                      : Progressive
Compression mode               : Lossy
Bits/(Pixel*Frame)             : 0.272
Stream size                    : 1.04 GiB (76%)
Writing library                : XviD 1.2.1 (UTC 2008-12-04)

Audio
ID                             : 1
Format                         : AC-3
Format/Info                    : Audio Coding 3
Mode extension                 : CM (complete main)
Format settings, Endianness    : Big
Codec ID                       : 2000
Duration                       : 1h 43mn
Bit rate mode                  : Constant
Bit rate                       : 448 Kbps
Channel(s)                     : 6 channels
Channel positions              : Front: L C R, Side: L R, LFE
Sampling rate                  : 48.0 KHz
Compression mode               : Lossy
Stream size                    : 333 MiB (24%)
Alignment                      : Split accross interleaves
Interleave, duration           : 42 ms (1.00 video frame)
Interleave, preload duration   : 500 ms
Перевод: Дарья Булгакова
Озвучивание: Баира Диарра, Андрей Циклис, Андрей Зверев, Алексей Ерёмин, Роман Уваров, Антон Емельянов, ЭФСаунд
Звукорежиссёр и координатор: Евгений Овчаренко (ИСПОВЕДНИК)
Технический редактор (рипер): Ciumac
Релиз:
picpicpicpicpic
Для увеличения картинки щелкните мышкой по превью

Этот торрент недоступен для скачивания без регистрации, однако доступен по публичной magnet-ссылке (источники с публичных трекеров). Перед использованием ссылки прочтите, пожалуйста Пользовательское соглашение, а также как можно дольше оставайтесь на раздаче! Для того, чтобы скачать сам торрент-файл (который видит больше источников), а также для того, чтобы поблагодарить релизера, вам необходимо зарегистрироваться. Если регистрироваться лень - вы можете также попробовать скачать релиз по нашим партнерским ссылкам ниже.

[underverse.su].t60077.torrent
Трекер: Зарегистрирован   [ 19.11.2015 11:27 ]  

Статус: проверено (by makkol at 19.11.2015 14:15)
Поблагодарили: пока никто не поблагодарил...
Тип торрента: публичный - доступные источники с открытых трекеров: 
Размер: 1,37 GB (занимает 0,31 DVDR, для записи нужно 1 болванка DVDR/RW)
 
 
Похожие темы
Форум Тема Автор Торрент Отв. Посл. сооб.
Зарубежное кино [HDDVDRip / BDRip / WEB-DL / HDTV 1080/720р] Призраки: Лучшая участь / Spooks: The Greater Good (Бхарат Наллури) [2015 г., триллер, драма, BDRip 1080p] MVO + Original makkol
10 | 1

0 | 279

8

19.11.2015 11:37


Яндекс.Метрика powered by Sphinx


В Н И М А Н И Е
Сайт не распространяет и не хранит электронные версии произведений, а лишь бесплатно и без коммерческой выгоды (не требуя взамен платы,
SMS и т.д.) предоставляет доступ к создаваемому пользователями каталогу ссылок на торрент-файлы, которые содержат только списки хеш-сумм.
Убедительная просьба с жалобами обращаться напрямую к пользователю, разместившему торрент файл.

Вверх