Loading...
Error

Всё могу / Absolutely Anything (Терри Джонс) [2015 г., фантастика, комедия, DVDRip] DVO + Original

Статистика раздачи
Размер:  1,46 GB   |    Зарегистрирован:  1 год   |    Скачан:  80 раз

Полного источника не было: 5 дней

Сидов:  0  |  0 KB/s  ]   Личеров:  0  |  0 KB/s  ]

* - сиды/пиры с внешних источников

   
 
Автор Сообщение

makkol Пол:Муж

18-Ноя-2015 11:18

Всё могу / Absolutely Anything
«Суперсила и никакой ответственности!»


Год выпуска: 2015
Жанр: фантастика, комедия
Производство: Великобритания , США [Bill and Ben Productions, GFM films]
Режиссер: Терри Джонс
В ролях: Кейт Бекинсейл, Робин Уильямс, Саймон Пегг, Терри Гиллиам, Джоанна Ламли, Джон Клиз, Роб Риггл
Сюжет фильма:
Злобные инопланетяне, собираясь уничтожить Землю, дают ей последний шанс — наделяют учителя-неудачника Ника Кларка способностью исполнять любые желания. Он бы мог положить конец войнам или воскресить величайшие умы всех времен. Вот только как заманчиво: стать президентом США, соблазнить неприступную красотку или заставить заговорить собственного пса. Спасет ли Ник Кларк землю или устроит полный беспредел..?

  • Мировая премьера: 12 августа 2015
  • Российская премьера: 19 ноября 2015


Качество видео: DVDRip

Продолжительность: 01:21:47
Формат: AVI
Видео: XviD, 720x400 (16:9), 25.000 fps, 1860 kbps
Аудио #1: русский, любительский двухголосый закадровый (Parovoz Production), AC3 2.0, 48 kHz, 192 kbps
Аудио #2: английский, оригинал, AC3 5.1, 48 kHz, 384 kbps

Код:

General
Complete name : Vsy0.m0gu.2015.L2.DVDRip.avi
Format : AVI
Format/Info : Audio Video Interleave
File size : 1.46 GiB
Duration : 1h 21mn
Overall bit rate : 2 547 Kbps
Writing application : VirtualDubMod 1.5.10.3 | (build 2550/release)

Video
ID : 0
Format : MPEG-4 Visual
Format profile : Advanced Simple@L5
Format settings, BVOP : 2
Format settings, QPel : No
Format settings, GMC : No warppoints
Format settings, Matrix : Default (MPEG)
Codec ID : XVID
Codec ID/Hint : XviD
Duration : 1h 21mn
Bit rate : 1 860 Kbps
Width : 720 pixels
Height : 400 pixels
Display aspect ratio : 16:9
Frame rate : 25.000 fps
Color space : YUV
Chroma subsampling : 4:2:0
Bit depth : 8 bits
Scan type : Progressive
Compression mode : Lossy
Bits/(Pixel*Frame) : 0.258
Stream size : 1.06 GiB (73%)
Writing library : XviD 1.2.1 (UTC 2008-12-04)

Audio #1
ID : 1
Format : AC-3
Format/Info : Audio Coding 3
Mode extension : CM (complete main)
Format settings, Endianness : Big
Codec ID : 2000
Duration : 1h 21mn
Bit rate mode : Constant
Bit rate : 192 Kbps
Channel(s) : 2 channels
Channel positions : Front: L R
Sampling rate : 48.0 KHz
Bit depth : 16 bits
Compression mode : Lossy
Stream size : 112 MiB (8%)
Alignment : Split accross interleaves

Audio #2
ID : 2
Format : AC-3
Format/Info : Audio Coding 3
Mode extension : CM (complete main)
Format settings, Endianness : Big
Codec ID : 2000
Duration : 1h 21mn
Bit rate mode : Constant
Bit rate : 384 Kbps
Channel(s) : 6 channels
Channel positions : Front: L C R, Side: L R, LFE
Sampling rate : 48.0 KHz
Bit depth : 16 bits
Compression mode : Lossy
Stream size : 225 MiB (15%)
Alignment : Split accross interleaves
Релиз группы:

picpicpicpicpic
Для увеличения картинки щелкните мышкой по превью

Этот торрент недоступен для скачивания без регистрации, однако доступен по публичной magnet-ссылке (источники с публичных трекеров). Перед использованием ссылки прочтите, пожалуйста Пользовательское соглашение, а также как можно дольше оставайтесь на раздаче! Для того, чтобы скачать сам торрент-файл (который видит больше источников), а также для того, чтобы поблагодарить релизера, вам необходимо зарегистрироваться. Если регистрироваться лень - вы можете также попробовать скачать релиз по нашим партнерским ссылкам ниже.

[underverse.su].t60035.torrent
Трекер: Зарегистрирован   [ 18.11.2015 11:18 ]  

Статус: проверено (by makkol at 18.11.2015 23:51)
Поблагодарили: 2 человека
Тип торрента: публичный - доступные источники с открытых трекеров: 
Размер: 1,46 GB (занимает 1/3 DVDR, для записи нужно 1 болванка DVDR/RW)
 
 
Похожие темы
Форум Тема Автор Торрент Отв. Посл. сооб.
T Зарубежное кино [DVDRip, Low-Res HDRip, и т.д.] Всё могу / Absolutely Anything (Терри Джонс) [2015 г., фантастика, комедия, HDRip] Dub (Line) makkol
5 | 0

2 | 724

69

15.12.2015 16:02

Зарубежное кино [DVDRip, Low-Res HDRip, и т.д.] Всё могу / Absolutely Anything (Терри Джонс / Terry Jones) [2015 г., фантастика, комедия, BDRip] Dub (IPTV) 90ytr90
226 | 5

0 | 376

15

23.01.2016 10:40

Зарубежное кино [DVDRip, Low-Res HDRip, и т.д.] Всё могу / Absolutely Anything (Терри Джонс / Terry Jones) [2015 г., фантастика, комедия, BDRip-AVC] Dub (IPTV) + Sub (Eng) 90ytr90
13 | 0

0 | 361

6

23.01.2016 11:04

Зарубежное кино [DVDRip, Low-Res HDRip, и т.д.] Всё могу / Absolutely Anything (Терри Джонс / Terry Jones) [2015 г., фантастика, комедия, BDRip-AVC] Dub (IPTV) + Original (Eng) + Sub (Rus, Eng) 90ytr90
8 | 0

0 | 414

18

23.01.2016 11:51

Зарубежное кино [DVDRip, Low-Res HDRip, и т.д.] Всё могу / Absolutely Anything (Терри Джонс / Terry Jones) [2015 г., фантастика, комедия, HDRip] Dub (IPTV) + Sub (Rus) 90ytr90
29 | 1

0 | 577

17

01.02.2016 19:38

T Зарубежное кино [DVDRip, Low-Res HDRip, и т.д.] Всё могу / Absolutely Anything (Терри Джонс / Terry Jones) [2015 г., фантастика, комедия, BDRip-AVC] Dub (iTunes) 90ytr90
27 | 0

0 | 368

5

15.03.2016 15:16

T Зарубежное кино [DVDRip, Low-Res HDRip, и т.д.] Всё могу / Absolutely Anything (Терри Джонс / Terry Jones) [2015 г., фантастика, комедия, BDRip] Dub (iTunes) + hardsub (Rus) 90ytr90
157 | 2

0 | 418

9

15.03.2016 16:30

T Зарубежное кино [HDDVDRip / BDRip / WEB-DL / HDTV 1080/720р] Всё могу / Absolutely Anything (Терри Джонс) [2015 г., фантастика, комедия, BDRip 1080p] Dub (Line) + Original makkol
4 | 0

0 | 572

39

07.12.2015 11:47

T Зарубежное кино [HDDVDRip / BDRip / WEB-DL / HDTV 1080/720р] Всё могу / Absolutely Anything (Терри Джонс / Terry Jones) [2015 г., фантастика, комедия, BDRip 720p] Dub (чистый звук) + Original (Eng) + Sub (Eng) 90ytr90
518 | 8

0 | 575

31

23.01.2016 12:11

Зарубежное кино [HDDVDRip / BDRip / WEB-DL / HDTV 1080/720р] Всё могу / Absolutely Anything (Терри Джонс / Terry Jones) [2015 г., фантастика, комедия, BDRip 720p] Dub (IPTV) + Original (Eng) + Sub (Eng) 90ytr90
95 | 3

0 | 483

8

01.02.2016 19:30


Яндекс.Метрика powered by Sphinx


В Н И М А Н И Е
Сайт не распространяет и не хранит электронные версии произведений, а лишь бесплатно и без коммерческой выгоды (не требуя взамен платы,
SMS и т.д.) предоставляет доступ к создаваемому пользователями каталогу ссылок на торрент-файлы, которые содержат только списки хеш-сумм.
Убедительная просьба с жалобами обращаться напрямую к пользователю, разместившему торрент файл.

Вверх