Loading...
Error

Дьявольский / Дьявольщина / The Diabolical (Алистер Легранд) [2015 г., ужасы, фантастика, триллер, HDRip] VO + Original

Статистика раздачи
Размер:  1,47 GB   |    Зарегистрирован:  1 год   |    Скачан:  19 раз

Полного источника не было: 1 месяц 20 дней

Сидов:  0  |  0 KB/s  ]   Личеров:  0  |  0 KB/s  ]

* - сиды/пиры с внешних источников

   
 
Автор Сообщение

makkol Пол:Муж

17-Ноя-2015 14:47

Дьявольский / Дьявольщина / The Diabolical


Год выпуска: 2015
Жанр: ужасы, фантастика, триллер
Производство: США [Campfire]
Режиссер: Алистер Легранд
В ролях: Джо Эгендер, Эли Лартер, Патрик Фишлер, Курт Карли, Уилмер Калдерон, Меррин Данги
Сюжет фильма:
Когда Мэдисон, мать-одиночка, и двое её детей сталкиваются с необъяснимыми явлениями в своём доме, она просит помощи у своего парня-учёного, который намерен уничтожить зловещий дух.

  • Мировая премьера: 16 марта 2015


Качество видео: HDRip

Продолжительность: 01:26:09
Формат: AVI
Видео: DivX, 720x304 (2.35:1), 23.976 fps, 2038 kbps
Аудио #1: русский, любительский одноголосый закадровый (Миллиган), AC3 2.0, 48 kHz, 192 kbps
Аудио #2: английский, оригинал, AC3 2.0, 48 kHz, 192 kbps

Код:

Общее
Полное имя                               : The.Diabolical.2015.VO.HDRip.avi
Формат                                   : AVI
Формат/Информация                        : Audio Video Interleave
Размер файла                             : 1,47 Гбайт
Продолжительность                        : 1 ч. 26 м.
Общий поток                              : 2436 Кбит/сек
Программа кодирования                    : VirtualDubMod 1.5.10.1 (build 2366/release)

Видео
Идентификатор                            : 0
Формат                                   : MPEG-4 Visual
Профиль формата                          : Advanced Simple@L5
Параметр BVOP формата                    : 2
Параметр QPel формата                    : Нет
Параметр GMC формата                     : Без точки перехода
Параметр матрицы формата                 : Default (H.263)
Идентификатор кодека                     : DIVX
Идентификатор кодека/Информация          : Project Mayo
Идентификатор кодека/Подсказка           : DivX 4
Продолжительность                        : 1 ч. 26 м.
Битрейт                                  : 2038 Кбит/сек
Ширина                                   : 720 пикселей
Высота                                   : 304 пикселя
Соотношение сторон                       : 2,35:1
Частота кадров                           : 23,976 кадра/сек
Цветовое пространство                    : YUV
Субдискретизация насыщенности            : 4:2:0
Битовая глубина                          : 8 бит
Тип развёртки                            : Прогрессивная
Метод сжатия                             : С потерями
Бит/(Пиксели*Кадры)                      : 0.388
Размер потока                            : 1,23 Гбайт (84%)
Библиотека кодирования                   : XviD 73

Аудио #1
Идентификатор                            : 1
Формат                                   : AC-3
Формат/Информация                        : Audio Coding 3
Расширение режима                        : CM (complete main)
Параметр Endianness формата              : Big
Идентификатор кодека                     : 2000
Продолжительность                        : 1 ч. 26 м.
Вид битрейта                             : Постоянный
Битрейт                                  : 192 Кбит/сек
Каналы                                   : 2 канала
Расположение каналов                     : Front: L R
Частота                                  : 48,0 КГц
Метод сжатия                             : С потерями
Задержка видео                           : 15 мс.
Размер потока                            : 118 Мбайт (8%)
Выравнивание                             : Разделение по промежуткам
Продолжительность промежутка             : 42  мс. (1,00 видеокадр)
Время предзагрузки промежутка            : 500  мс.

Аудио #2
Идентификатор                            : 2
Формат                                   : AC-3
Формат/Информация                        : Audio Coding 3
Расширение режима                        : CM (complete main)
Параметр Endianness формата              : Big
Идентификатор кодека                     : 2000
Продолжительность                        : 1 ч. 26 м.
Вид битрейта                             : Постоянный
Битрейт                                  : 192 Кбит/сек
Каналы                                   : 2 канала
Расположение каналов                     : Front: L R
Частота                                  : 48,0 КГц
Метод сжатия                             : С потерями
Задержка видео                           : 15 мс.
Размер потока                            : 118 Мбайт (8%)
Выравнивание                             : Разделение по промежуткам
Продолжительность промежутка             : 42  мс. (1,00 видеокадр)
Время предзагрузки промежутка            : 500  мс.
picpicpicpicpic
Для увеличения картинки щелкните мышкой по превью

Этот торрент недоступен для скачивания без регистрации, однако доступен по публичной magnet-ссылке (источники с публичных трекеров). Перед использованием ссылки прочтите, пожалуйста Пользовательское соглашение, а также как можно дольше оставайтесь на раздаче! Для того, чтобы скачать сам торрент-файл (который видит больше источников), а также для того, чтобы поблагодарить релизера, вам необходимо зарегистрироваться. Если регистрироваться лень - вы можете также попробовать скачать релиз по нашим партнерским ссылкам ниже.

[underverse.su].t60015.torrent
Трекер: Зарегистрирован   [ 17.11.2015 14:47 ]  

Статус: проверено (by makkol at 18.11.2015 23:48)
Поблагодарили: пока никто не поблагодарил...
Тип торрента: публичный - доступные источники с открытых трекеров: 
Размер: 1,47 GB (занимает 0,33 DVDR, для записи нужно 1 болванка DVDR/RW)
 
 
Похожие темы
Форум Тема Автор Торрент Отв. Посл. сооб.
Зарубежное кино [DVDRip, Low-Res HDRip, и т.д.] Дьявольский / Дьявольщина / The Diabolical (Алистер Легранд) [2015 г., ужасы, фантастика, триллер, HDRip] DVO + Original makkol
106 | 0

0 | 300

13

25.11.2015 15:20

Зарубежное кино [HDDVDRip / BDRip / WEB-DL / HDTV 1080/720р] Дьявольский / Дьявольщина / The Diabolical ( Алистер Легранд) [2015 г., ужасы, фантастика, триллер, BDRip 1080p] DVO + Original makkol
4 | 0

0 | 366

9

25.11.2015 15:40


Яндекс.Метрика powered by Sphinx


В Н И М А Н И Е
Сайт не распространяет и не хранит электронные версии произведений, а лишь бесплатно и без коммерческой выгоды (не требуя взамен платы,
SMS и т.д.) предоставляет доступ к создаваемому пользователями каталогу ссылок на торрент-файлы, которые содержат только списки хеш-сумм.
Убедительная просьба с жалобами обращаться напрямую к пользователю, разместившему торрент файл.

Вверх