Loading...
Error

Костяной томагавк / Bone Tomahawk (С. Крэйг Залер) [2015 г., ужасы, вестерн, WEB-DLRip] MVO

Статистика раздачи
Размер:  2,06 GB   |    Зарегистрирован:  1 год   |    Скачан:  32 раза
Сидов:  1  |  0 KB/s  ]   Личеров:  0  |  0 KB/s  ]

* - сиды/пиры с внешних источников

   
 
Автор Сообщение

makkol Пол:Муж

15-Ноя-2015 23:00

Костяной томагавк / Bone Tomahawk


Год выпуска: 2015
Жанр: ужасы, вестерн
Производство: США [Caliber Media Company]
Режиссер: С. Крэйг Залер
В ролях: Патрик Уилсон, Курт Расселл, Лили Симмонс, Шон Янг, Занн МаКларнон, Мэттью Фокс, Дэвид Аркетт, Сид Хэйг, Ричард Дженкинс, Кэтрин Моррис
Сюжет фильма:
Четверо людей приезжают на дикий запад, для того чтобы убрать кровожадных каннибалов из пещер. Ведь население напугано. Каждую ночь эти монстры приходят и забирают самых слабых, только для того, чтобы полакомиться трупами.

  • Мировая премьера: 1 октября 2015
  • Российская премьера: 10 декабря 2015


Качество видео: WEB-DLRip

Продолжительность: 02:12:19
Формат: AVI
Видео: XviD, 720x304 (2.35:1), 23.976 fps, 1830 kbps
Аудио: русский, профессиональный многоголосый закадровый, AC3 2.0, 48 kHz, 384 kbps

Код:

Общее
Полное имя : Kostyanoi.Tomagavk.2015.P.WEB-DLRip.Paradox_Omskbird.avi
Формат : AVI
Формат/Информация : Audio Video Interleave
Профиль формата : OpenDML
Размер файла : 2,05 Гбайт
Продолжительность : 2 ч. 12 м.
Общий поток : 2226 Кбит/сек
Программа кодирования : VirtualDubMod 1.5.10.2 (build 2540/release)
Библиотека кодирования : VirtualDub build 32507/release

Видео
Идентификатор : 0
Формат : MPEG-4 Visual
Профиль формата : Advanced Simple@L5
Параметр BVOP формата : 2
Параметр QPel формата : Нет
Параметр GMC формата : Без точки перехода
Параметр матрицы формата : Default (MPEG)
Идентификатор кодека : XVID
Идентификатор кодека/Подсказка : XviD
Продолжительность : 2 ч. 12 м.
Битрейт : 1830 Кбит/сек
Ширина : 720 пикселей
Высота : 304 пикселя
Соотношение сторон : 2,35:1
Частота кадров : 23,976 кадра/сек
Цветовое пространство : YUV
Субдискретизация насыщенности : 4:2:0
Битовая глубина : 8 бит
Тип развёртки : Прогрессивная
Метод сжатия : С потерями
Бит/(Пиксели*Кадры) : 0.349
Размер потока : 1,69 Гбайт (82%)
Библиотека кодирования : XviD 1.2.1 (UTC 2008-12-04)

Аудио
Идентификатор : 1
Формат : AC-3
Формат/Информация : Audio Coding 3
Расширение режима : CM (complete main)
Параметр Endianness формата : Big
Идентификатор кодека : 2000
Продолжительность : 2 ч. 12 м.
Вид битрейта : Постоянный
Битрейт : 384 Кбит/сек
Каналы : 2 канала
Расположение каналов : Front: L R
Частота : 48,0 КГц
Метод сжатия : С потерями
Задержка видео : 27 мс.
Размер потока : 363 Мбайт (17%)
Выравнивание : Разделение по промежуткам
Продолжительность промежутка : 42 мс. (1,00 видеокадр)
Время предзагрузки промежутка : 500 мс.
Paradox & OMSKBIRD records
Роли озвучивали: Анна Тух, Константин Погодаев, Павел Ярощик и Максим Максимов
Перевод: Никита Коваль
Звукорежиссер: Павел Квентов
picpicpicpicpic
Для увеличения картинки щелкните мышкой по превью

Этот торрент недоступен для скачивания без регистрации, однако доступен по публичной magnet-ссылке (источники с публичных трекеров). Перед использованием ссылки прочтите, пожалуйста Пользовательское соглашение, а также как можно дольше оставайтесь на раздаче! Для того, чтобы скачать сам торрент-файл (который видит больше источников), а также для того, чтобы поблагодарить релизера, вам необходимо зарегистрироваться. Если регистрироваться лень - вы можете также попробовать скачать релиз по нашим партнерским ссылкам ниже.

[underverse.su].t59948.torrent
Трекер: Зарегистрирован   [ 15.11.2015 23:00 ]  

Статус: проверено (by makkol at 17.11.2015 11:42)
Поблагодарили: 1 человек
Тип торрента: публичный - доступные источники с открытых трекеров: 
Размер: 2,06 GB (занимает 0,47 DVDR, для записи нужно 1 болванка DVDR/RW)
 
 
Похожие темы
Форум Тема Автор Торрент Отв. Посл. сооб.
T Зарубежное кино [DVDRip, Low-Res HDRip, и т.д.] Костяной томагавк / Bone Tomahawk (С. Крэйг Залер) [2015 г., ужасы, вестерн, BDRip] Dub makkol
8 | 1

0 | 750

44

01.01.2016 10:00

T Зарубежное кино [DVDRip, Low-Res HDRip, и т.д.] Костяной томагавк / Bone Tomahawk (С. Крэйг Залер / S. Craig Zahler) [2015 г., ужасы, вестерн, BDRip] Dub (iTunes) 90ytr90
36 | 1

0 | 398

18

23.01.2016 20:24

Зарубежное кино [DVDRip, Low-Res HDRip, и т.д.] Костяной томагавк / Bone Tomahawk (С. Крэйг Залер / S. Craig Zahler) [2015 г., ужасы, вестерн, BDRip] MVO (Paradox & Omskbird records) 90ytr90
33 | 2

0 | 339

6

23.01.2016 20:30

T Зарубежное кино [DVDRip, Low-Res HDRip, и т.д.] Костяной томагавк / Bone Tomahawk (С. Крэйг Залер / S. Craig Zahler) [2015 г., ужасы, вестерн, BDRip-AVC] Dub (iTunes) + Sub (Eng) 90ytr90
13 | 0

0 | 282

7

24.01.2016 18:37

T Зарубежное кино [DVDRip, Low-Res HDRip, и т.д.] Костяной томагавк / Bone Tomahawk (С. Крэйг Залер / S. Craig Zahler) [2015 г., ужасы, вестерн, BDRip-AVC] Dub (iTunes)+ Original (Eng) + Sub (Eng) 90ytr90
21 | 1

0 | 303

4

24.01.2016 18:47

Зарубежное кино [HDDVDRip / BDRip / WEB-DL / HDTV 1080/720р] Костяной томагавк / Bone Tomahawk (С. Крэйг Залер) [2015 г., ужасы, вестерн, WEB-DL 720p] MVO + Original makkol
5 | 0

0 | 493

25

15.11.2015 23:14

T Зарубежное кино [HDDVDRip / BDRip / WEB-DL / HDTV 1080/720р] Костяной томагавк / Bone Tomahawk (С. Крэйг Залер) [2015 г., ужасы, вестерн, BDRip 1080p] Dub + Original makkol
12 | 0

0 | 1065

25

01.01.2016 10:08

T Зарубежное кино [HDDVDRip / BDRip / WEB-DL / HDTV 1080/720р] Костяной томагавк / Bone Tomahawk (С. Крэйг Залер / S. Craig Zahler) [2015 г., ужасы, вестерн, BDRip 720p] Dub (iTunes) + MVO (Paradox & Omskbird records) + Original (Eng) + Sub (Eng) 90ytr90
17 | 1

0 | 240

3

23.01.2016 21:10

T Зарубежное кино [HDDVDRip / BDRip / WEB-DL / HDTV 1080/720р] Костяной томагавк / Bone Tomahawk (С. Крэйг Залер / S. Craig Zahler) [2015 г., ужасы, вестерн, BDRip 720p] Dub (iTunes) + Original (Eng) + Sub (Eng) 90ytr90
24 | 1

0 | 339

9

23.01.2016 21:20


Яндекс.Метрика powered by Sphinx


В Н И М А Н И Е
Сайт не распространяет и не хранит электронные версии произведений, а лишь бесплатно и без коммерческой выгоды (не требуя взамен платы,
SMS и т.д.) предоставляет доступ к создаваемому пользователями каталогу ссылок на торрент-файлы, которые содержат только списки хеш-сумм.
Убедительная просьба с жалобами обращаться напрямую к пользователю, разместившему торрент файл.

Вверх