Loading...
Error

От звонка до звонка / Starred Up (Дэвид Маккензи) [2013 г., драма, криминал, HDRip] MVO

Статистика раздачи
Размер:  1,45 GB   |    Зарегистрирован:  1 год   |    Скачан:  32 раза

Полного источника не было: 3 месяца 15 дней

Сидов:  0  |  0 KB/s  ]   Личеров:  0  |  0 KB/s  ]

* - сиды/пиры с внешних источников

   
 
Автор Сообщение

makkol Пол:Муж

12-Ноя-2015 15:14

От звонка до звонка / Starred Up


Год выпуска: 2013
Жанр: драма, криминал
Производство: Великобритания [Film4, Lip Sync Productions, Quickfire Films, Sigma Films]
Режиссер: Дэвид Маккензи
В ролях: Джек О`Коннелл, Руперт Френд, Бен Мендельсон, Сэм Спруэлл, Дэвид Аджала, Шан Брекин, Питер Фердинандо, Дэвид Крисанту, Энтони Уэльс, Шэйн МакКэффри
Сюжет фильма:
У Эрика крайне непростая жизнь и проблемный характер. В свои юные годы этот герой британской драмы уже сделался преступником и теперь оказался в тюрьме для взрослых. С самого начала он пытается самоутвердиться среди сотрудников тюрьмы и других обитателей и сталкивается со своим отцом, человеком, который почти всю свою жизнь пробыл за решеткой. По мере того как интрига в фильме нарастает, Эрик заводит дружбу с другими заключенными и осознает, что его озлобленность по отношению ко всем и вся можно преодолеть. Ему открываются новые правила выживания, однако есть силы, способные его уничтожить…

  • Мировая премьера: 30 августа 2013
  • Российская премьера: 30 июля 2015


Качество видео: HDRip

Продолжительность: 01:45:56
Формат: AVI
Видео: XviD, 720x304 (2.35:1), 23.976 fps, 1763 kbps
Аудио: русский, профессиональный многоголосый закадровый, AC3 2.0, 48 kHz, 192 kbps

Код:

Общее
Полное имя : 0t.3B0Hka.D0.3B0Hka.2013.P.HDRip.avi
Формат : AVI
Формат/Информация : Audio Video Interleave
Размер файла : 1,45 Гбайт
Продолжительность : 1 ч. 45 м.
Общий поток : 1965 Кбит/сек
Программа кодирования : VirtualDubMod 1.5.10.2 (build 2540/release)
Библиотека кодирования : VirtualDubMod build 2540/release

Видео
Идентификатор : 0
Формат : MPEG-4 Visual
Профиль формата : Advanced Simple@L5
Параметр BVOP формата : 2
Параметр QPel формата : Нет
Параметр GMC формата : Без точки перехода
Параметр матрицы формата : Default (MPEG)
Идентификатор кодека : XVID
Идентификатор кодека/Подсказка : XviD
Продолжительность : 1 ч. 45 м.
Битрейт : 1763 Кбит/сек
Ширина : 720 пикселей
Высота : 304 пикселя
Соотношение сторон : 2,35:1
Частота кадров : 23,976 кадра/сек
Цветовое пространство : YUV
Субдискретизация насыщенности : 4:2:0
Битовая глубина : 8 бит
Тип развёртки : Прогрессивная
Метод сжатия : С потерями
Бит/(Пиксели*Кадры) : 0.336
Размер потока : 1,30 Гбайт (90%)
Библиотека кодирования : XviD 1.2.1 (UTC 2008-12-04)

Аудио
Идентификатор : 1
Формат : AC-3
Формат/Информация : Audio Coding 3
Расширение режима : CM (complete main)
Параметр Endianness формата : Big
Идентификатор кодека : 2000
Продолжительность : 1 ч. 45 м.
Вид битрейта : Постоянный
Битрейт : 192 Кбит/сек
Каналы : 2 канала
Расположение каналов : Front: L R
Частота : 48,0 КГц
Битовая глубина : 16 бит
Метод сжатия : С потерями
Размер потока : 145 Мбайт (10%)
Выравнивание : Разделение по промежуткам
Продолжительность промежутка : 42 мс. (1,00 видеокадр)
Время предзагрузки промежутка : 500 мс.
picpicpicpicpic
Для увеличения картинки щелкните мышкой по превью

Этот торрент недоступен для скачивания без регистрации, однако доступен по публичной magnet-ссылке (источники с публичных трекеров). Перед использованием ссылки прочтите, пожалуйста Пользовательское соглашение, а также как можно дольше оставайтесь на раздаче! Для того, чтобы скачать сам торрент-файл (который видит больше источников), а также для того, чтобы поблагодарить релизера, вам необходимо зарегистрироваться. Если регистрироваться лень - вы можете также попробовать скачать релиз по нашим партнерским ссылкам ниже.

[underverse.su].t59854.torrent
Трекер: Зарегистрирован   [ 12.11.2015 15:14 ]  

Статус: проверено (by Паукан at 12.11.2015 18:09)
Поблагодарили: 1 человек
Тип торрента: публичный - доступные источники с открытых трекеров: 
Размер: 1,45 GB (занимает 1/3 DVDR, для записи нужно 1 болванка DVDR/RW)
 
 
Похожие темы
Форум Тема Автор Торрент Отв. Посл. сооб.
Зарубежное кино [HDDVDRip / BDRip / WEB-DL / HDTV 1080/720р] От звонка до звонка / Starred Up (Дэвид Маккензи) [2013 г., драма, криминал, BDRip 1080p] MVO + Original makkol
5 | 0

0 | 572

18

12.11.2015 15:27


Яндекс.Метрика powered by Sphinx


В Н И М А Н И Е
Сайт не распространяет и не хранит электронные версии произведений, а лишь бесплатно и без коммерческой выгоды (не требуя взамен платы,
SMS и т.д.) предоставляет доступ к создаваемому пользователями каталогу ссылок на торрент-файлы, которые содержат только списки хеш-сумм.
Убедительная просьба с жалобами обращаться напрямую к пользователю, разместившему торрент файл.

Вверх