Loading...
Error

Безродные звери / Beasts of No Nation (Кэри Джоджи Фукунага) [2015 г., драма, военный, WEBRip] DVO

Статистика раздачи
Размер:  1,45 GB   |    Зарегистрирован:  1 год   |    Скачан:  36 раз

Полного источника не было: 19 часов

Сидов:  0  |  0 KB/s  ]   Личеров:  0  |  0 KB/s  ]

* - сиды/пиры с внешних источников

   
 
Автор Сообщение

makkol Пол:Муж

10-Ноя-2015 13:44

Безродные звери / Beasts of No Nation
«Ребенок. Пленник. Убийца»


Год выпуска: 2015
Жанр: драма, военный
Производство: США [Come What May Productions, Mammoth Entertainment, New Balloon, Participant Media, Red Crown Productions]
Режиссер: Кэри Джоджи Фукунага
В ролях: Идрис Эльба, Абрам Атта, Эммануэль Аффадзи, Рики Аделайитор, Эндрю Эйдот, Вера Ньяркоа Антви, Эйма Абебрезе, Кобана Амисса-Сэм, Френсис Уедди, Фред Нии Умуги, Джон Артур, Грейс Норти, Эммари Браун, Наталиа Андо, Мэттью Мпоке Бигг, Нана Менса, Эрнест Аббеквай, Дэвид Донто, Квоми Гадаго, Эммануэль Ато Гарти, Брайан Энджелс, Альберт Джэксон О'Дэйвис, Эндрю Эдвардс, Эммануэль Нии Адом Квей, Бернард Квей, Феликс Оппонг Кьекьеку, Эбенезер Аннанфо, Зейбон Гибсон, Рэнди Афлакпуи, Джастис Промис Азуди
Сюжет фильма:
Фильм расскажет о приключениях юноши по имени Агу, которого гражданская война на западе Африки принуждает вступить в команду наемников. Судьбе мало того, что парень пережил гибель отца и исчезновение сестры и матери, она погружает его в жизнь, полную насилия и жестокости.

  • Мировая премьера: 3 сентября 2015


Качество видео: WEBRip

Продолжительность: 02:16:33
Формат: AVI
Видео: XviD, 720x304 (2.35:1), 23.976 fps, 1388 kbps
Аудио: русский, любительский двухголосый закадровый (Sunny-films), AC3 2.0, 48 kHz, 128 kbps

Код:

General
Complete name               : Be3r0dn1e.Zver1.2015.L2.WEBRip.avi
Format                      : AVI
Format/Info                 : Audio Video Interleave
File size                   : 1.45 GiB
Duration                    : 2h 16mn
Overall bit rate            : 1 525 Kbps
Writing application         : VirtualDubMod 1.5.10.3 | www.virtualdub-fr.org || (build 2550/release)
Writing library             : VirtualDubMod build 2550/release

Video
ID                          : 0
Format                      : MPEG-4 Visual
Format profile              : Advanced Simple@L5
Format settings, BVOP       : 2
Format settings, QPel       : No
Format settings, GMC        : No warppoints
Format settings, Matrix     : Default (MPEG)
Codec ID                    : XVID
Codec ID/Hint               : XviD
Duration                    : 2h 16mn
Bit rate                    : 1 388 Kbps
Width                       : 720 pixels
Height                      : 304 pixels
Display aspect ratio        : 2.35:1
Frame rate                  : 23.976 fps
Color space                 : YUV
Chroma subsampling          : 4:2:0
Bit depth                   : 8 bits
Scan type                   : Progressive
Compression mode            : Lossy
Bits/(Pixel*Frame)          : 0.264
Stream size                 : 1.32 GiB (91%)
Writing library             : XviD 1.2.1 (UTC 2008-12-04)

Audio
ID                          : 1
Format                      : AC-3
Format/Info                 : Audio Coding 3
Mode extension              : CM (complete main)
Format settings, Endianness : Big
Codec ID                    : 2000
Duration                    : 2h 16mn
Bit rate mode               : Constant
Bit rate                    : 128 Kbps
Channel(s)                  : 2 channels
Channel positions           : Front: L R
Sampling rate               : 48.0 KHz
Compression mode            : Lossy
Stream size                 : 125 MiB (8%)
Alignment                   : Split accross interleaves
Interleave, duration        : 42 ms (1.00 video frame)
Interleave, preload duratio : 500 ms
picpicpicpicpic
Для увеличения картинки щелкните мышкой по превью

Этот торрент недоступен для скачивания без регистрации, однако доступен по публичной magnet-ссылке (источники с публичных трекеров). Перед использованием ссылки прочтите, пожалуйста Пользовательское соглашение, а также как можно дольше оставайтесь на раздаче! Для того, чтобы скачать сам торрент-файл (который видит больше источников), а также для того, чтобы поблагодарить релизера, вам необходимо зарегистрироваться. Если регистрироваться лень - вы можете также попробовать скачать релиз по нашим партнерским ссылкам ниже.

[underverse.su].t59782.torrent
Трекер: Зарегистрирован   [ 10.11.2015 13:44 ]  

Статус: проверено (by makkol at 10.11.2015 15:12)
Поблагодарили: 1 человек
Тип торрента: публичный - доступные источники с открытых трекеров: 
Размер: 1,45 GB (занимает 1/3 DVDR, для записи нужно 1 болванка DVDR/RW)
 
 
Похожие темы
Форум Тема Автор Торрент Отв. Посл. сооб.
Зарубежное кино [DVDRip, Low-Res HDRip, и т.д.] Безродные звери / Beasts of No Nation (Кэри Фукунага / Cary Joji Fukunaga) [2015 г., драма, военный, WEB-DLRip] AVO (Сербин) 90ytr90
8 | 0

0 | 567

14

05.03.2016 08:20

Зарубежное кино [HDDVDRip / BDRip / WEB-DL / HDTV 1080/720р] Безродные звери / Beasts of No Nation (Кэри Джоджи Фукунага) [2015 г., драма, военный, WEBRip 1080p] DVO + Original makkol
17 | 0

0 | 703

23

10.11.2015 13:58

Зарубежное кино [HDDVDRip / BDRip / WEB-DL / HDTV 1080/720р] Безродные звери / Beasts of No Nation (Кэри Фукунага / Cary Joji Fukunaga) [2015 г., драма, военный, WEB-DL 1080p] AVO (Немахов) + AVO (Сербин) + MVO (Ukr) + Original (Eng) + Sub (Rus, Eng) 90ytr90
20 | 2

0 | 409

8

04.03.2016 15:09


Яндекс.Метрика powered by Sphinx


В Н И М А Н И Е
Сайт не распространяет и не хранит электронные версии произведений, а лишь бесплатно и без коммерческой выгоды (не требуя взамен платы,
SMS и т.д.) предоставляет доступ к создаваемому пользователями каталогу ссылок на торрент-файлы, которые содержат только списки хеш-сумм.
Убедительная просьба с жалобами обращаться напрямую к пользователю, разместившему торрент файл.

Вверх