Loading...
Error

Клинч (Сергей Пускепалис) [2015 г., драма, WEB-DLRip]

Статистика раздачи
Размер:  1,37 GB   |    Зарегистрирован:  1 год   |    Скачан:  71 раз

Полного источника не было: 20 часов

Сидов:  0  |  0 KB/s  ]   Личеров:  0  |  0 KB/s  ]

* - сиды/пиры с внешних источников

   
 
Автор Сообщение

makkol Пол:Муж

09-Ноя-2015 22:46

Клинч


Год выпуска: 2015
Жанр: драма
Производство: Россия [Марс Медиа Энтертейнмент]
Режиссер: Сергей Пускепалис
В ролях: Алексей Серебряков, Ася Домская, Агриппина Стеклова, Вячеслав Евлантьев, Максим Лагашкин, Сергей Степин, Илья Чертов, Ирина Луковская, Анна Уколова, Ирина Ильинская
Сюжет фильма:
У школьного учителя литературы Федорова был трудный день. Две смены, потом собрание, затем нотация от директрисы, а в его маленькой квартире жена затеяла ремонт. Вдобавок ко всему по дороге домой за ним увязывается незнакомая девушка, которая выхватывает из рук учителя портфель и убегает. Федоров догоняет воровку, она плачет, жалуется на сложную жизнь и вдруг начинает обвинять его в самоубийстве своей подруги и угрожать приездом жениха-бандита. Посчитав незнакомку сумасшедшей, Федоров собирается уйти, не подозревая, что это только начало опасного знакомства.

  • Мировая премьера: 15 июля 2015
  • Российская премьера: 22 октября 2015


Качество видео: WEB-DLRip

Продолжительность: 01:37:30
Формат: AVI
Видео: XviD, 720x304 (2.35:1), 25.000 fps, 1804 kbps
Аудио: русский, оригинал, AC3 2.0, 48 kHz, 192 kbps

Код:

Общее
Полное имя : Kl1nch.2015.O.WEB-DLRip.avi
Формат : AVI
Формат/Информация : Audio Video Interleave
Размер файла : 1,37 Гбайт
Продолжительность : 1 ч. 37 м.
Общий поток : 2006 Кбит/сек
Программа кодирования : VirtualDubMod 1.5.10.3 | (build 2550/release)
Библиотека кодирования : VirtualDubMod build 2550/release

Видео
Идентификатор : 0
Формат : MPEG-4 Visual
Профиль формата : Advanced Simple@L5
Параметр BVOP формата : 2
Параметр QPel формата : Нет
Параметр GMC формата : Без точки перехода
Параметр матрицы формата : Default (MPEG)
Идентификатор кодека : XVID
Идентификатор кодека/Подсказка : XviD
Продолжительность : 1 ч. 37 м.
Битрейт : 1804 Кбит/сек
Ширина : 720 пикселей
Высота : 304 пикселя
Соотношение сторон : 2,35:1
Частота кадров : 25,000 кадров/сек
Цветовое пространство : YUV
Субдискретизация насыщенности : 4:2:0
Битовая глубина : 8 бит
Тип развёртки : Прогрессивная
Метод сжатия : С потерями
Бит/(Пиксели*Кадры) : 0.330
Размер потока : 1,23 Гбайт (90%)
Библиотека кодирования : XviD 1.2.1 (UTC 2008-12-04)

Аудио
Идентификатор : 1
Формат : AC-3
Формат/Информация : Audio Coding 3
Расширение режима : CM (complete main)
Параметр Endianness формата : Big
Идентификатор кодека : 2000
Продолжительность : 1 ч. 37 м.
Вид битрейта : Постоянный
Битрейт : 192 Кбит/сек
Каналы : 2 канала
Расположение каналов : Front: L R
Частота : 48,0 КГц
Битовая глубина : 16 бит
Метод сжатия : С потерями
Размер потока : 134 Мбайт (10%)
Выравнивание : Разделение по промежуткам
Продолжительность промежутка : 40 мс. (1,00 видеокадр)
Время предзагрузки промежутка : 500 мс.
picpicpicpicpic
Для увеличения картинки щелкните мышкой по превью

Этот торрент недоступен для скачивания без регистрации, однако доступен по публичной magnet-ссылке (источники с публичных трекеров). Перед использованием ссылки прочтите, пожалуйста Пользовательское соглашение, а также как можно дольше оставайтесь на раздаче! Для того, чтобы скачать сам торрент-файл (который видит больше источников), а также для того, чтобы поблагодарить релизера, вам необходимо зарегистрироваться. Если регистрироваться лень - вы можете также попробовать скачать релиз по нашим партнерским ссылкам ниже.

[underverse.su].t59768.torrent
Трекер: Зарегистрирован   [ 09.11.2015 22:46 ]  

Статус: проверено (by makkol at 10.11.2015 15:08)
Поблагодарили: 1 человек
Тип торрента: публичный - доступные источники с открытых трекеров: 
Размер: 1,37 GB (занимает 0,31 DVDR, для записи нужно 1 болванка DVDR/RW)
 
 
Похожие темы
Форум Тема Автор Торрент Отв. Посл. сооб.
Наше кино [HDDVDRip / BDRip / WEB-DL / HDTV 1080/720р] Клинч (Сергей Пускепалис) [2015 г., драма, WEB-DL 1080p] makkol
19 | 2

0 | 496

30

09.11.2015 22:53


Яндекс.Метрика powered by Sphinx


В Н И М А Н И Е
Сайт не распространяет и не хранит электронные версии произведений, а лишь бесплатно и без коммерческой выгоды (не требуя взамен платы,
SMS и т.д.) предоставляет доступ к создаваемому пользователями каталогу ссылок на торрент-файлы, которые содержат только списки хеш-сумм.
Убедительная просьба с жалобами обращаться напрямую к пользователю, разместившему торрент файл.

Вверх