Loading...
Error

Кривая линия / Curve (Иэн Софтли) [2015 г., ужасы, триллер, WEB-DLRip] Dub

Статистика раздачи
Размер:  1,36 GB   |    Зарегистрирован:  1 год   |    Скачан:  28 раз

Полного источника не было: 1 месяц 9 дней

Сидов:  0  |  0 KB/s  ]   Личеров:  0  |  0 KB/s  ]

* - сиды/пиры с внешних источников

   
 
Автор Сообщение

makkol Пол:Муж

08-Ноя-2015 22:44

Кривая линия / Curve


Год выпуска: 2015
Жанр: ужасы, триллер
Производство: США [Blumhouse Productions, LBI Entertainment, Ombra Films, Universal Pictures]
Режиссер: Иэн Софтли
В ролях: Джулианна Хаф, Тедди Сирс, Курт Брайант, Мэдалин Хорчер, Дрю Рауш
Сюжет фильма:
По вине автостопщика, спровоцировавшего аварию, молодая женщина попадает в ловушку своего собственного автомобиля.

  • Мировая премьера: 31 августа 2015


Качество видео: WEB-DLRip

Продолжительность: 01:25:29
Формат: AVI
Видео: XviD, 720x304 (2.35:1), 23.976 fps, 1884 kbps
Аудио: русский, дублированный (iTunes), AC3 2.0, 48 kHz, 384 kbps

Код:

General
Complete name : Curve.2015.D.WEB-DLRip.1400Mb.avi
Format : AVI
Format/Info : Audio Video Interleave
File size : 1.36 GiB
Duration : 1h 25mn
Overall bit rate : 2 278 Kbps
Writing application : VirtualDubMod 1.5.10.2 (build 2540/release)
Writing library : VirtualDubMod build 2540/release

Video
ID : 0
Format : MPEG-4 Visual
Format profile : Advanced Simple@L5
Format settings, BVOP : 2
Format settings, QPel : No
Format settings, GMC : No warppoints
Format settings, Matrix : Default (MPEG)
Codec ID : XVID
Codec ID/Hint : XviD
Duration : 1h 25mn
Bit rate : 1 885 Kbps
Width : 720 pixels
Height : 304 pixels
Display aspect ratio : 2.35:1
Frame rate : 23.976 fps
Color space : YUV
Chroma subsampling : 4:2:0
Bit depth : 8 bits
Scan type : Progressive
Compression mode : Lossy
Bits/(Pixel*Frame) : 0.359
Stream size : 1.13 GiB (83%)
Writing library : XviD 1.2.1 (UTC 2008-12-04)

Audio
ID : 1
Format : AC-3
Format/Info : Audio Coding 3
Mode extension : CM (complete main)
Codec ID : 2000
Duration : 1h 25mn
Bit rate mode : Constant
Bit rate : 384 Kbps
Channel(s) : 2 channels
Channel positions : Front: L R
Sampling rate : 48.0 KHz
Bit depth : 16 bits
Compression mode : Lossy
Stream size : 235 MiB (17%)
Alignment : Split accross interleaves
Interleave, duration : 42 ms (1.00 video frame)
Interleave, preload duration : 500 ms
picpicpicpicpic
Для увеличения картинки щелкните мышкой по превью

Этот торрент недоступен для скачивания без регистрации, однако доступен по публичной magnet-ссылке (источники с публичных трекеров). Перед использованием ссылки прочтите, пожалуйста Пользовательское соглашение, а также как можно дольше оставайтесь на раздаче! Для того, чтобы скачать сам торрент-файл (который видит больше источников), а также для того, чтобы поблагодарить релизера, вам необходимо зарегистрироваться. Если регистрироваться лень - вы можете также попробовать скачать релиз по нашим партнерским ссылкам ниже.

[underverse.su].t59751.torrent
Трекер: Зарегистрирован   [ 08.11.2015 22:44 ]  

Статус: T временная (by makkol at 10.11.2015 15:03)
Поблагодарили: 1 человек
Тип торрента: публичный - доступные источники с открытых трекеров: 
Размер: 1,36 GB (занимает 0,31 DVDR, для записи нужно 1 болванка DVDR/RW)
 
 
Похожие темы
Форум Тема Автор Торрент Отв. Посл. сооб.
T Зарубежное кино [HDDVDRip / BDRip / WEB-DL / HDTV 1080/720р] Кривая линия / Curve (Иэн Софтли) [2015 г., ужасы, триллер, WEB-DL 720p] Dub + Original makkol
11 | 0

0 | 390

15

08.11.2015 22:53


Яндекс.Метрика powered by Sphinx


В Н И М А Н И Е
Сайт не распространяет и не хранит электронные версии произведений, а лишь бесплатно и без коммерческой выгоды (не требуя взамен платы,
SMS и т.д.) предоставляет доступ к создаваемому пользователями каталогу ссылок на торрент-файлы, которые содержат только списки хеш-сумм.
Убедительная просьба с жалобами обращаться напрямую к пользователю, разместившему торрент файл.

Вверх