Loading...
Error

Взрослые новички / Adult Beginners (Росс Кац) [2014 г., драма, комедия, HDRip] Dub

Статистика раздачи
Размер:  1,37 GB   |    Зарегистрирован:  1 год   |    Скачан:  33 раза

Полного источника не было: 5 месяцев 27 дней

Сидов:  0  |  0 KB/s  ]   Личеров:  0  |  0 KB/s  ]

* - сиды/пиры с внешних источников

   
 
Автор Сообщение

makkol Пол:Муж

08-Ноя-2015 22:22

Взрослые новички / Adult Beginners


Год выпуска: 2014
Жанр: драма, комедия
Производство: США [Blumhouse Productions, LBI Entertainment, Ombra Films, Universal Pictures]
Режиссер: Росс Кац
В ролях: Роуз Бирн, Ник Кролл, Бобби Каннавале, Джоэл МакХэйл, Калеб и Мэттью Пэддок, Паула Гарсес, Кэйтлин Фицджералд, Джейн Краковски, Майк Бирбиглия, Грег Джонсон
Сюжет фильма:
Молодой самовлюблённый предприниматель терпит крах накануне запуска своей компании. Переживать возникший на месте его жизни хаос он едет с родного Манхэттена к беременной сестре, с которой давно не поддерживал отношения, её мужу и 3-летнему племяннику, живущим в пригороде — и становится их няней.

  • Мировая премьера: 8 сентября 2014


Качество видео: HDRip

Продолжительность: 01:32:05
Формат: AVI
Видео: XviD, 720x384 (1.85:1), 23.976 fps, 1732 kbps
Аудио: русский, дублированный (iTunes), AC3 2.0, 48 kHz, 384 kbps

Код:

General
Complete name : A.Beg1nners.2015.D.HDRip.1400Mb.avi
Format : AVI
Format/Info : Audio Video Interleave
File size : 1.37 GiB
Duration : 1h 32mn
Overall bit rate : 2 125 Kbps
Writing application : VirtualDubMod 1.5.10.2 (build 2540/release)
Writing library : VirtualDubMod build 2540/release

Video
ID : 0
Format : MPEG-4 Visual
Format profile : Advanced Simple@L5
Format settings, BVOP : 2
Format settings, QPel : No
Format settings, GMC : No warppoints
Format settings, Matrix : Default (MPEG)
Codec ID : XVID
Codec ID/Hint : XviD
Duration : 1h 32mn
Bit rate : 1 732 Kbps
Width : 720 pixels
Height : 384 pixels
Display aspect ratio : 1.875
Frame rate : 23.976 fps
Color space : YUV
Chroma subsampling : 4:2:0
Bit depth : 8 bits
Scan type : Progressive
Compression mode : Lossy
Bits/(Pixel*Frame) : 0.261
Stream size : 1.11 GiB (81%)
Writing library : XviD 1.2.1 (UTC 2008-12-04)

Audio
ID : 1
Format : AC-3
Format/Info : Audio Coding 3
Mode extension : CM (complete main)
Codec ID : 2000
Duration : 1h 32mn
Bit rate mode : Constant
Bit rate : 384 Kbps
Channel(s) : 2 channels
Channel positions : Front: L R
Sampling rate : 48.0 KHz
Bit depth : 16 bits
Compression mode : Lossy
Stream size : 253 MiB (18%)
Alignment : Split accross interleaves
Interleave, duration : 42 ms (1.00 video frame)
Interleave, preload duration : 500 ms
picpicpicpicpic
Для увеличения картинки щелкните мышкой по превью

Этот торрент недоступен для скачивания без регистрации, однако доступен по публичной magnet-ссылке (источники с публичных трекеров). Перед использованием ссылки прочтите, пожалуйста Пользовательское соглашение, а также как можно дольше оставайтесь на раздаче! Для того, чтобы скачать сам торрент-файл (который видит больше источников), а также для того, чтобы поблагодарить релизера, вам необходимо зарегистрироваться. Если регистрироваться лень - вы можете также попробовать скачать релиз по нашим партнерским ссылкам ниже.

[underverse.su].t59749.torrent
Трекер: Зарегистрирован   [ 08.11.2015 22:22 ]  

Статус: T временная (by makkol at 10.11.2015 15:02)
Поблагодарили: пока никто не поблагодарил...
Тип торрента: публичный - доступные источники с открытых трекеров: 
Размер: 1,37 GB (занимает 0,31 DVDR, для записи нужно 1 болванка DVDR/RW)
 
 
Похожие темы
Форум Тема Автор Торрент Отв. Посл. сооб.
T Зарубежное кино [HDDVDRip / BDRip / WEB-DL / HDTV 1080/720р] Взрослые новички / Adult Beginners (Росс Кац) [2014 г., драма, комедия, BDRip 1080p] Dub + Original makkol
0 | 0

0 | 577

8

08.11.2015 22:31


Яндекс.Метрика powered by Sphinx


В Н И М А Н И Е
Сайт не распространяет и не хранит электронные версии произведений, а лишь бесплатно и без коммерческой выгоды (не требуя взамен платы,
SMS и т.д.) предоставляет доступ к создаваемому пользователями каталогу ссылок на торрент-файлы, которые содержат только списки хеш-сумм.
Убедительная просьба с жалобами обращаться напрямую к пользователю, разместившему торрент файл.

Вверх