Loading...
Error

Лес / Божества / The Woods / The Hallow (Корин Харди) [2015 г., ужасы, WEB-DLRip-AVC] VO + Original

Статистика раздачи
Размер:  1,57 GB   |    Зарегистрирован:  1 год   |    Скачан:  10 раз

Полного источника не было: 6 месяцев

Сидов:  0  |  0 KB/s  ]   Личеров:  0  |  0 KB/s  ]

* - сиды/пиры с внешних источников

   
 
Автор Сообщение

makkol Пол:Муж

08-Ноя-2015 13:28

Лес / Божества / The Woods / The Hallow


Год выпуска: 2015
Жанр: ужасы
Производство: Великобритания [Altitude Film Entertainment, Electric Shadow Company, Fantastic Films Ltd]
Режиссер: Корин Харди
В ролях: Джозеф Моул, Бояна Новакович, Майкл МакЭлхаттон, Гари Лайдон. Стюарт Грэхэм, Конор Крэйг Стефенс, Шон Тайрел, Билли Трэйнор
Сюжет фильма:
Семья, которая переезжает в дом, расположенный в глуши Ирландии, оказывается вынуждена бороться за выживание с демоническими существами, живущими в лесу.

  • Мировая премьера: 25 января 2015


Качество видео: WEB-DLRip-AVC

Продолжительность: 01:36:52
Формат: MKV
Видео: MPEG-4 AVC, 1024x422, 24.000 fps, 1750 kbps
Аудио #1: русский, любительский одноголосый закадровый, AC3 2.0, 44.1 kHz, 192 kbps
Аудио #2: английский, оригинал, AC3 5.1, 48 kHz, 384 kbps
Субтитры: английские вшитые отключаемые

Код:

Общее
Уникальный идентификатор                 : 194954761395881672927201188526935963142 (0x92AAEBD8D496C1408FC0A6570902F606)
Полное имя                               : The.Hallow.2015.xixidok.WEB-DLRip.AVC.ExKinoRay.mkv
Формат                                   : Matroska
Версия формата                           : Version 4 / Version 2
Размер файла                             : 1,57 Гбайт
Продолжительность                        : 1 ч. 36 м.
Общий поток                              : 2327 Кбит/сек
Название фильма                          : The Hallow 2015 from ExKinoRay
Дата кодирования                         : UTC 2015-11-07 05:35:55
Программа кодирования                    : mkvmerge v6.6.0 ('The Edge Of The In Between') built on Dec  1 2013 17:55:00
Библиотека кодирования                   : libebml v1.3.0 + libmatroska v1.4.1

Видео
Идентификатор                            : 1
Формат                                   : AVC
Формат/Информация                        : Advanced Video Codec
Профиль формата                          : High@L4.1
Параметр CABAC формата                   : Да
Параметр ReFrames формата                : 10 кадров
Идентификатор кодека                     : V_MPEG4/ISO/AVC
Продолжительность                        : 1 ч. 36 м.
Битрейт                                  : 1750 Кбит/сек
Ширина                                   : 1024 пикселя
Высота                                   : 422 пикселя
Соотношение сторон                       : 2,40:1
Режим частоты кадров                     : Постоянный
Частота кадров                           : 24,000 кадра/сек
Цветовое пространство                    : YUV
Субдискретизация насыщенности            : 4:2:0
Битовая глубина                          : 8 бит
Тип развёртки                            : Прогрессивная
Бит/(Пиксели*Кадры)                      : 0.169
Размер потока                            : 1,15 Гбайт (73%)
Библиотека кодирования                   : x264 core 133 r2334 a3ac64b
Настройки программы                      : cabac=1 / ref=10 / deblock=1:-2:-2 / analyse=0x3:0x113 / me=umh / subme=10 / psy=1 / psy_rd=1.05:0.15 / mixed_ref=1 / me_range=32 / chroma_me=1 / trellis=2 / 8x8dct=1 / cqm=0 / deadzone=21,11 / fast_pskip=0 / chroma_qp_offset=-3 / threads=12 / lookahead_threads=2 / sliced_threads=0 / nr=0 / decimate=0 / interlaced=0 / bluray_compat=0 / constrained_intra=0 / bframes=9 / b_pyramid=2 / b_adapt=2 / b_bias=0 / direct=3 / weightb=1 / open_gop=0 / weightp=2 / keyint=240 / keyint_min=24 / scenecut=40 / intra_refresh=0 / rc_lookahead=40 / rc=2pass / mbtree=0 / bitrate=1750 / ratetol=1.0 / qcomp=0.60 / qpmin=0 / qpmax=51 / qpstep=4 / cplxblur=20.0 / qblur=0.5 / vbv_maxrate=50000 / vbv_bufsize=62500 / nal_hrd=none / ip_ratio=1.40 / pb_ratio=1.30 / aq=1:1.00
Default                                  : Да
Forced                                   : Нет
Цветовой диапазон                        : Limited
Основные цвета                           : BT.709
Характеристики трансфера                 : BT.709
Коэффициенты матрицы                     : BT.709

Аудио #1
Идентификатор                            : 2
Формат                                   : AC-3
Формат/Информация                        : Audio Coding 3
Расширение режима                        : CM (complete main)
Параметр Endianness формата              : Big
Идентификатор кодека                     : A_AC3
Продолжительность                        : 1 ч. 36 м.
Вид битрейта                             : Постоянный
Битрейт                                  : 192 Кбит/сек
Каналы                                   : 2 канала
Расположение каналов                     : Front: L R
Частота                                  : 44,1 КГц
Метод сжатия                             : С потерями
Размер потока                            : 133 Мбайт (8%)
Заголовок                                : xixidok
Язык                                     : Russian
Default                                  : Нет
Forced                                   : Нет

Аудио #2
Идентификатор                            : 3
Формат                                   : AC-3
Формат/Информация                        : Audio Coding 3
Расширение режима                        : CM (complete main)
Параметр Endianness формата              : Big
Идентификатор кодека                     : A_AC3
Продолжительность                        : 1 ч. 36 м.
Вид битрейта                             : Постоянный
Битрейт                                  : 384 Кбит/сек
Каналы                                   : 6 каналов
Расположение каналов                     : Front: L C R, Side: L R, LFE
Частота                                  : 48,0 КГц
Метод сжатия                             : С потерями
Размер потока                            : 266 Мбайт (17%)
Язык                                     : English
Default                                  : Нет
Forced                                   : Нет

Текст
Идентификатор                            : 4
Формат                                   : UTF-8
Идентификатор кодека                     : S_TEXT/UTF8
Идентификатор кодека/Информация          : UTF-8 Plain Text
Язык                                     : English
Default                                  : Нет
Forced                                   : Нет
Rip by Enigma
Перевод: Марла Z, Enigma
Озвучивание: Хихикающий доктор
Релиз группы:
picpicpicpicpic
Для увеличения картинки щелкните мышкой по превью

Этот торрент недоступен для скачивания без регистрации, однако доступен по публичной magnet-ссылке (источники с публичных трекеров). Перед использованием ссылки прочтите, пожалуйста Пользовательское соглашение, а также как можно дольше оставайтесь на раздаче! Для того, чтобы скачать сам торрент-файл (который видит больше источников), а также для того, чтобы поблагодарить релизера, вам необходимо зарегистрироваться. Если регистрироваться лень - вы можете также попробовать скачать релиз по нашим партнерским ссылкам ниже.

[underverse.su].t59736.torrent
Трекер: Зарегистрирован   [ 08.11.2015 13:28 ]  

Статус: проверено (by makkol at 10.11.2015 14:57)
Поблагодарили: пока никто не поблагодарил...
Тип торрента: публичный - доступные источники с открытых трекеров: 
Размер: 1,57 GB (занимает 0,36 DVDR, для записи нужно 1 болванка DVDR/RW)
 
 
Похожие темы
Форум Тема Автор Торрент Отв. Посл. сооб.
Зарубежное кино [DVDRip, Low-Res HDRip, и т.д.] Лес / Божества / The Woods / The Hallow (Корин Харди) [2015 г., ужасы, WEB-DLRip] VO makkol
125 | 3

0 | 710

6

08.11.2015 13:53

Зарубежное кино [HDDVDRip / BDRip / WEB-DL / HDTV 1080/720р] Лес / Божества / The Woods / The Hallow (Корин Харди) [2015 г., ужасы, WEB-DL 720p] VO + Original makkol
15 | 0

0 | 391

16

08.11.2015 13:40


Яндекс.Метрика powered by Sphinx


В Н И М А Н И Е
Сайт не распространяет и не хранит электронные версии произведений, а лишь бесплатно и без коммерческой выгоды (не требуя взамен платы,
SMS и т.д.) предоставляет доступ к создаваемому пользователями каталогу ссылок на торрент-файлы, которые содержат только списки хеш-сумм.
Убедительная просьба с жалобами обращаться напрямую к пользователю, разместившему торрент файл.

Вверх