Loading...
Error

Шесть шведок в пансионате / Sechs Schwedinnen im Pensionat / Six Swedish Girls in a Boarding School (Эрвин С. Дитрих) [1979 г., эротика, комедия, BDRip] AVO + Original

Статистика раздачи
Размер:  1,46 GB   |    Зарегистрирован:  1 год   |    Скачан:  53 раза

Полного источника не было: 1 день 4 часа

Сидов:  0  |  0 KB/s  ]   Личеров:  0  |  0 KB/s  ]

* - сиды/пиры с внешних источников

   
 
Автор Сообщение

makkol Пол:Муж

08-Ноя-2015 12:17

Шесть шведок в пансионате / Sechs Schwedinnen im Pensionat / Six Swedish Girls in a Boarding School


Год выпуска: 1979
Жанр: эротика, комедия
Производство: Швейцария , Франция [Avia Films, Elite]
Режиссер: Эрвин С. Дитрих
В ролях: Брижит Лаэ, Надин Паскаль, Френс Джордан, Дэниэль Трегер, Кэтлин Кэйн, Эльза Маруся, Эрик Фальк, Майк Монтана, Эдгар Дель Понте, Роман Хубер, Дайан Келли, Анн Либер
Сюжет фильма:
Шесть белокурых шведок живут в Швейцарском девичьем пансионе. Как только они выезжают на прогулку на своих велосипедах, то сразу соблазняют всех мужчин живущих по соседству...

  • Мировая премьера: 28 сентября 1979


Качество видео: BDRip

Продолжительность: 01:30:49
Формат: AVI
Видео: XviD, 720x392, 24.000 fps, 1648 kbps
Аудио #1: русский, авторский одноголосый закадровый (Юрий Муравский), AC3 2.0, 48 kHz, 192 kbps
Аудио #2: немецкий, оригинал, AC3 5.1, 48 kHz, 448 kbps

Код:

Общее
Полное имя                               : Sechs.Schwedinnen.im.Pensionat.1979.BDRip-ylnian.avi
Формат                                   : AVI
Формат/Информация                        : Audio Video Interleave
Профиль формата                          : OpenDML
Настройки формата                        : rec
Размер файла                             : 1,46 Гбайт
Продолжительность                        : 1 ч. 30 м.
Общий поток                              : 2295 Кбит/сек
Программа кодирования                    : AVI-Mux GUI 1.17.8.3, Feb 16 201019:42:50

Видео
Идентификатор                            : 0
Формат                                   : MPEG-4 Visual
Профиль формата                          : Advanced Simple@L5
Параметр BVOP формата                    : 1
Параметр QPel формата                    : Нет
Параметр GMC формата                     : Без точки перехода
Параметр матрицы формата                 : Default (H.263)
Идентификатор кодека                     : XVID
Идентификатор кодека/Подсказка           : XviD
Продолжительность                        : 1 ч. 30 м.
Битрейт                                  : 1648 Кбит/сек
Ширина                                   : 720 пикселей
Высота                                   : 392 пикселя
Соотношение сторон                       : 1,85:1
Частота кадров                           : 24,000 кадра/сек
Цветовое пространство                    : YUV
Субдискретизация насыщенности            : 4:2:0
Битовая глубина                          : 8 бит
Тип развёртки                            : Прогрессивная
Метод сжатия                             : С потерями
Бит/(Пиксели*Кадры)                      : 0.243
Размер потока                            : 1,05 Гбайт (72%)
Библиотека кодирования                   : XviD 1.2.1 (UTC 2008-12-04)

Аудио #1
Идентификатор                            : 1
Формат                                   : AC-3
Формат/Информация                        : Audio Coding 3
Расширение режима                        : CM (complete main)
Параметр Endianness формата              : Big
Идентификатор кодека                     : 2000
Продолжительность                        : 1 ч. 30 м.
Вид битрейта                             : Постоянный
Битрейт                                  : 192 Кбит/сек
Каналы                                   : 2 канала
Расположение каналов                     : Front: L R
Частота                                  : 48,0 КГц
Битовая глубина                          : 16 бит
Метод сжатия                             : С потерями
Размер потока                            : 125 Мбайт (8%)
Выравнивание                             : Соединение по промежуткам
Продолжительность промежутка             : 64  мс. (1,54 видеокадра)
Время предзагрузки промежутка            : 192  мс.
Заголовок                                : Sechs.Schwedinnen.im.Pensionat.1979.rus

Аудио #2
Идентификатор                            : 2
Формат                                   : AC-3
Формат/Информация                        : Audio Coding 3
Расширение режима                        : CM (complete main)
Параметр Endianness формата              : Big
Идентификатор кодека                     : 2000
Продолжительность                        : 1 ч. 30 м.
Вид битрейта                             : Постоянный
Битрейт                                  : 448 Кбит/сек
Каналы                                   : 6 каналов
Расположение каналов                     : Front: L C R, Side: L R, LFE
Частота                                  : 48,0 КГц
Битовая глубина                          : 16 бит
Метод сжатия                             : С потерями
Размер потока                            : 291 Мбайт (20%)
Выравнивание                             : Соединение по промежуткам
Продолжительность промежутка             : 64  мс. (1,54 видеокадра)
Время предзагрузки промежутка            : 192  мс.
Заголовок                                : Pensionat_ger_448
Релиз: от ylnian

picpicpicpicpic
Для увеличения картинки щелкните мышкой по превью

Этот торрент недоступен для скачивания без регистрации, однако доступен по публичной magnet-ссылке (источники с публичных трекеров). Перед использованием ссылки прочтите, пожалуйста Пользовательское соглашение, а также как можно дольше оставайтесь на раздаче! Для того, чтобы скачать сам торрент-файл (который видит больше источников), а также для того, чтобы поблагодарить релизера, вам необходимо зарегистрироваться. Если регистрироваться лень - вы можете также попробовать скачать релиз по нашим партнерским ссылкам ниже.

[underverse.su].t59734.torrent
Трекер: Зарегистрирован   [ 08.11.2015 12:17 ]  

Статус: проверено (by makkol at 10.11.2015 14:51)
Поблагодарили: 2 человека
Тип торрента: публичный - доступные источники с открытых трекеров: 
Размер: 1,46 GB (занимает 1/3 DVDR, для записи нужно 1 болванка DVDR/RW)
 
 
Похожие темы
Форум Тема Автор Торрент Отв. Посл. сооб.
Зарубежное кино [DVDRip, Low-Res HDRip, и т.д.] Шесть шведок в Альпах / Sechs Schwedinnen auf der Alm (Пауль Грау) [1983 г., комедия, DVDRip] VO 90ytr90
2 | 0

0 | 2477

58

21.12.2013 10:38

Зарубежное кино [HDDVDRip / BDRip / WEB-DL / HDTV 1080/720р] Шесть шведок в пансионате / Sechs Schwedinnen im Pensionat / Six Swedish Girls in a Boarding School (Эрвин С. Дитрих) [1979 г., эротика, комедия, BDRip 1080p] AVO (Rus) + Ger + Eng makkol
2 | 0

0 | 767

32

08.11.2015 13:08


Яндекс.Метрика powered by Sphinx


В Н И М А Н И Е
Сайт не распространяет и не хранит электронные версии произведений, а лишь бесплатно и без коммерческой выгоды (не требуя взамен платы,
SMS и т.д.) предоставляет доступ к создаваемому пользователями каталогу ссылок на торрент-файлы, которые содержат только списки хеш-сумм.
Убедительная просьба с жалобами обращаться напрямую к пользователю, разместившему торрент файл.

Вверх