Loading...
Error

Три (Павел Хвалеев) [2015 г., ужасы, триллер, драма, HDRip]

Статистика раздачи
Размер:  1,36 GB   |    Зарегистрирован:  1 год   |    Скачан:  52 раза

Полного источника не было: 16 дней

Сидов:  0  |  0 KB/s  ]   Личеров:  0  |  0 KB/s  ]

* - сиды/пиры с внешних источников

   
 
Автор Сообщение

makkol Пол:Муж

08-Ноя-2015 11:42

Три
«Чем ближе ко дну океана, тем он темнее»


Год выпуска: 2015
Жанр: ужасы, триллер, драма
Страна: Россия , Германия
Режиссер: Павел Хвалеев
В ролях: Полина Давыдова, Евгений Гагарин, Любовь Игнатушко
Сюжет фильма:
В маленький европейский городок, в котором живут сёстры Айя и Мирра, пришла неизвестная болезнь, которая унесла жизни многих горожан. После смерти мамы заболевает младшая Мирра. Понимая, что традиционная медицина бессильна перед болезнью сестры, Айя обращается за помощью к близкому другу семьи, приходскому священнику отцу Герману. В его доме Айя случайно находит книги далёкие от традиционной религии. Она узнаёт, что только проникнув в больное подсознание Мирры и отыскав истинную причину её болезни, она получит шанс на спасение сестры. Айя готова пройти страшный ритуал, погрузиться в недра подсознания и встретиться лицом к лицу с обитающими там демонами. Но сможет ли она справиться с собственным страхом, когда узнает все тайны прошлой жизни сестры?

  • Мировая премьера: 2 марта 2015
  • Российская премьера: 3 декабря 2015


Релиз: Немецкая лицензия

Качество видео: HDRip

Продолжительность: 01:20:25
Формат: AVI
Видео: XviD, 720x304 (2.35:1), 24.000 fps, 1970 kbps
Аудио: русский, оригинал, AC3 2.0, 48 kHz, 448 kbps

Код:

General
Complete name : Tr1.2015.O.HDRip.1400Mb.avi
Format : AVI
Format/Info : Audio Video Interleave
File size : 1.36 GiB
Duration : 1h 20mn
Overall bit rate : 2 427 Kbps
Writing application : VirtualDubMod 1.5.10.2 (build 2540/release)
Writing library : VirtualDubMod build 2540/release

Video
ID : 0
Format : MPEG-4 Visual
Format profile : Advanced Simple@L5
Format settings, BVOP : 2
Format settings, QPel : No
Format settings, GMC : No warppoints
Format settings, Matrix : Default (MPEG)
Codec ID : XVID
Codec ID/Hint : XviD
Duration : 1h 20mn
Bit rate : 1 970 Kbps
Width : 720 pixels
Height : 304 pixels
Display aspect ratio : 2.35:1
Frame rate : 24.000 fps
Color space : YUV
Chroma subsampling : 4:2:0
Bit depth : 8 bits
Scan type : Progressive
Compression mode : Lossy
Bits/(Pixel*Frame) : 0.375
Stream size : 1.11 GiB (81%)
Writing library : XviD 1.2.1 (UTC 2008-12-04)

Audio
ID : 1
Format : AC-3
Format/Info : Audio Coding 3
Mode extension : CM (complete main)
Codec ID : 2000
Duration : 1h 20mn
Bit rate mode : Constant
Bit rate : 448 Kbps
Channel(s) : 2 channels
Channel positions : Front: L R
Sampling rate : 48.0 KHz
Bit depth : 16 bits
Compression mode : Lossy
Stream size : 258 MiB (18%)
Alignment : Split accross interleaves
Interleave, duration : 42 ms (1.00 video frame)
Interleave, preload duration : 500 ms
picpicpicpicpic
Для увеличения картинки щелкните мышкой по превью

Этот торрент недоступен для скачивания без регистрации, однако доступен по публичной magnet-ссылке (источники с публичных трекеров). Перед использованием ссылки прочтите, пожалуйста Пользовательское соглашение, а также как можно дольше оставайтесь на раздаче! Для того, чтобы скачать сам торрент-файл (который видит больше источников), а также для того, чтобы поблагодарить релизера, вам необходимо зарегистрироваться. Если регистрироваться лень - вы можете также попробовать скачать релиз по нашим партнерским ссылкам ниже.

[underverse.su].t59732.torrent
Трекер: Зарегистрирован   [ 08.11.2015 11:42 ]  

Статус: проверено (by makkol at 10.11.2015 14:48)
Поблагодарили: 1 человек
Тип торрента: публичный - доступные источники с открытых трекеров: 
Размер: 1,36 GB (занимает 0,31 DVDR, для записи нужно 1 болванка DVDR/RW)
 
 
Похожие темы
Форум Тема Автор Торрент Отв. Посл. сооб.
Наше кино [HDDVDRip / BDRip / WEB-DL / HDTV 1080/720р] Три (Павел Хвалеев) [2015 г., ужасы, триллер, драма, BDRip 1080p] Rus + Ger makkol
1 | 0

0 | 514

20

08.11.2015 11:53


Яндекс.Метрика powered by Sphinx


В Н И М А Н И Е
Сайт не распространяет и не хранит электронные версии произведений, а лишь бесплатно и без коммерческой выгоды (не требуя взамен платы,
SMS и т.д.) предоставляет доступ к создаваемому пользователями каталогу ссылок на торрент-файлы, которые содержат только списки хеш-сумм.
Убедительная просьба с жалобами обращаться напрямую к пользователю, разместившему торрент файл.

Вверх