Loading...
Error

Белое облако Каролин / Weise Wolke Carolin (Рольф Лозанский) [1985 г., детский, семейный, DVDRip] AVO + Original

Статистика раздачи
Размер:  735 MB   |    Зарегистрирован:  11 месяцев   |    Скачан:  2 раза

Полного источника не было: 6 месяцев

Сидов:  0  |  0 KB/s  ]   Личеров:  0  |  0 KB/s  ]

* - сиды/пиры с внешних источников

   
 
Автор Сообщение

makkol Пол:Муж

07-Ноя-2015 23:04

Белое облако Каролин / Weiße Wolke Carolin


Год выпуска: 1985
Жанр: детский, семейный
Производство: ГДР [Deutsche Film (DEFA)]
Режиссер: Рольф Лозанский
В ролях: Андреас Ролл, Констанце Берндт, Яна Циглер, Петра Келлинг, Карл-Герман Риссе, Мирослав Махачек, Хельга Геринг, Ута Шорн
Сюжет фильма:
Гансу двенадцать лет. Он живет среди сельской идиллии и чувствует большую симпатию к своей однокласснице Каролин. Но не всё так хорошо – есть ещё зловредный Бенно, чей дед во времена Третьего рейха расклеивал антифашистские листовки и так хорошо знает историю. Каролин и Бенно проводят вместе много времени и Ганс ревнует...

Качество видео: DVDRip

Продолжительность: 01:21:51
Формат: AVI
Видео: DivX, 640x352 (16:9), 25.000 fps, 1049 kbps
Аудио #1: русский, авторский одноголосый закадровый (Юрий Муравский), MP3 2.0, 44.1 kHz, 96 kbps
Аудио #2: немецкий, оригинал, MP3 2.0, 44.1 kHz, 96 kbps

Код:

General
Complete name : Weisse_Wolke_Carolin_1985_DVDRip_rus.avi
Format : AVI
Format/Info : Audio Video Interleave
File size : 735 MiB
Duration : 1h 21mn
Overall bit rate : 1 255 Kbps

Video
ID : 0
Format : MPEG-4 Visual
Format settings, BVOP : Yes
Format settings, QPel : No
Format settings, GMC : No warppoints
Format settings, Matrix : Default (H.263)
Codec ID : DX50
Codec ID/Hint : DivX 5
Duration : 1h 21mn
Bit rate : 1 049 Kbps
Width : 640 pixels
Height : 352 pixels
Display aspect ratio : 16:9
Frame rate : 25.000 fps
Resolution : 8 bits
Colorimetry : 4:2:0
Scan type : Progressive
Bits/(Pixel*Frame) : 0.186
Stream size : 614 MiB (84%)
Writing library : DivX 5.1.1 (Maupiti) (UTC 2003-11-19)

Audio #1
ID : 1
Format : MPEG Audio
Format version : Version 1
Format profile : Layer 3
Mode : Joint stereo
Format_Settings_ModeExtension : MS Stereo
Codec ID : 55
Codec ID/Hint : MP3
Duration : 1h 21mn
Bit rate mode : Constant
Bit rate : 96.0 Kbps
Channel(s) : 2 channels
Sampling rate : 44.1 KHz
Stream size : 56.2 MiB (8%)
Alignment : Split accross interleaves
Interleave, duration : 40 ms (1.00 video frame)
Interleave, preload duration : 500 ms

Audio #2
ID : 2
Format : MPEG Audio
Format version : Version 1
Format profile : Layer 3
Mode : Joint stereo
Format_Settings_ModeExtension : MS Stereo
Codec ID : 55
Codec ID/Hint : MP3
Duration : 1h 21mn
Bit rate mode : Constant
Bit rate : 96.0 Kbps
Channel(s) : 2 channels
Sampling rate : 44.1 KHz
Stream size : 56.2 MiB (8%)
Alignment : Split accross interleaves
Interleave, duration : 40 ms (1.00 video frame)
Interleave, preload duration : 500 ms
picpicpicpicpic
Для увеличения картинки щелкните мышкой по превью

Этот торрент недоступен для скачивания без регистрации, однако доступен по публичной magnet-ссылке (источники с публичных трекеров). Перед использованием ссылки прочтите, пожалуйста Пользовательское соглашение, а также как можно дольше оставайтесь на раздаче! Для того, чтобы скачать сам торрент-файл (который видит больше источников), а также для того, чтобы поблагодарить релизера, вам необходимо зарегистрироваться. Если регистрироваться лень - вы можете также попробовать скачать релиз по нашим партнерским ссылкам ниже.

[underverse.su].t59722.torrent
Трекер: Зарегистрирован   [ 24.12.2015 11:34 ]  

Статус: проверено (by makkol at 25.12.2015 23:18)
Поблагодарили: пока никто не поблагодарил...
Тип торрента: публичный - доступные источники с открытых трекеров: 
Размер: 735 MB (занимает 0,16 DVDR, для записи нужно 1 болванка DVDR/RW)
 
 

Яндекс.Метрика powered by Sphinx


В Н И М А Н И Е
Сайт не распространяет и не хранит электронные версии произведений, а лишь бесплатно и без коммерческой выгоды (не требуя взамен платы,
SMS и т.д.) предоставляет доступ к создаваемому пользователями каталогу ссылок на торрент-файлы, которые содержат только списки хеш-сумм.
Убедительная просьба с жалобами обращаться напрямую к пользователю, разместившему торрент файл.

Вверх