Loading...
Error

Чувственная медсестра / L'infermiera / The Sensuous Nurse (Нелло Россати) [1975 г., комедия, DVDRip] VO + Original + Subs

Статистика раздачи
Размер:  1,55 GB   |    Зарегистрирован:  1 год   |    Скачан:  29 раз

Полного источника не было: 1 день 5 часов

Сидов:  0  |  0 KB/s  ]   Личеров:  0  |  0 KB/s  ]

* - сиды/пиры с внешних источников

   
 
Автор Сообщение

makkol Пол:Муж

07-Ноя-2015 22:26

Чувственная медсестра / L'infermiera / The Sensuous Nurse


Год выпуска: 1975
Жанр: комедия
Производство: Италия [Compagnia Cinematografica Champion]
Режиссер: Нелло Россати
В ролях: Урсула Андресс, Дуилио Дель Прете, Марио Пизу, Даниэле Варгас, Карла Романелли, Марина Конфалоне, Стефано Сабелли, Лучана Палуцци, Лино Тоффоло, Джек Пэланс
Сюжет фильма:
Для того, чтобы окончательно угробить тяжелобольного богатого старичка, владельца винодельческой фабрики, его жадные родственники-наследники нанимают сексапильную медсестру по уходу за больным.

  • Мировая премьера: 19 декабря 1975


Качество видео: DVDRip

Продолжительность: 01:40:54
Формат: AVI
Видео: XviD, 640x352 (1.82:1), 25.000 fps, 1801 kbps
Аудио #1: русский, любительский одноголосый закадровый, AC3 2.0, 48 kHz, 192 kbps
Аудио #2: итальянский, оригинал, AC3 2.0, 48 kHz, 192 kbps
Субтитры: русские внешние, SRT
Релиз: Rutracker
Рип by dimmm2v
Перевод (субтитры): Антон Каптелов
Озвучивание: Andi999
Организация озвучки: rotorovv

Код:

Format : AVI
Format/Info : Audio Video Interleave
File size : 1.55 GiB
Duration : 1h 40mn
Overall bit rate : 2 200 Kbps
Writing application : VirtualDubMod 1.5.10.2 (build 2540/release)
Writing library : VirtualDubMod build 2540/release

Video
ID : 0
Format : MPEG-4 Visual
Format profile : Advanced Simple@L5
Format settings, BVOP : 1
Format settings, QPel : No
Format settings, GMC : No warppoints
Format settings, Matrix : Default (H.263)
Codec ID : XVID
Codec ID/Hint : XviD
Duration : 1h 40mn
Bit rate : 1 801 Kbps
Width : 640 pixels
Height : 352 pixels
Display aspect ratio : 16:9
Frame rate : 25.000 fps
Color space : YUV
Chroma subsampling : 4:2:0
Bit depth : 8 bits
Scan type : Progressive
Compression mode : Lossy
Bits/(Pixel*Frame) : 0.320
Stream size : 1.27 GiB (82%)
Writing library : XviD 1.2.1 (UTC 2008-12-04)

Audio #1
ID : 1
Format : AC-3
Format/Info : Audio Coding 3
Mode extension : CM (complete main)
Format settings, Endianness : Big
Codec ID : 2000
Duration : 1h 40mn
Bit rate mode : Constant
Bit rate : 192 Kbps
Channel(s) : 2 channels
Channel positions : Front: L R
Sampling rate : 48.0 KHz
Bit depth : 16 bits
Compression mode : Lossy
Stream size : 139 MiB (9%)
Alignment : Split accross interleaves
Interleave, duration : 40 ms (1.00 video frame)
Interleave, preload duration : 500 ms

Audio #2
ID : 2
Format : AC-3
Format/Info : Audio Coding 3
Format profile : Dolby Digital
Mode extension : CM (complete main)
Format settings, Endianness : Big
Codec ID : 2000
Duration : 1h 40mn
Bit rate mode : Constant
Bit rate : 192 Kbps
Channel(s) : 2 channels
Channel positions : Front: L R
Sampling rate : 48.0 KHz
Bit depth : 16 bits
Compression mode : Lossy
Stream size : 139 MiB (9%)
Alignment : Split accross interleaves
Interleave, duration : 40 ms (1.00 video frame)
Interleave, preload duration : 500 ms
picpicpicpicpic
Для увеличения картинки щелкните мышкой по превью

Этот торрент недоступен для скачивания без регистрации, однако доступен по публичной magnet-ссылке (источники с публичных трекеров). Перед использованием ссылки прочтите, пожалуйста Пользовательское соглашение, а также как можно дольше оставайтесь на раздаче! Для того, чтобы скачать сам торрент-файл (который видит больше источников), а также для того, чтобы поблагодарить релизера, вам необходимо зарегистрироваться. Если регистрироваться лень - вы можете также попробовать скачать релиз по нашим партнерским ссылкам ниже.

[underverse.su].t59721.torrent
Трекер: Зарегистрирован   [ 07.11.2015 22:26 ]  

Статус: проверено (by makkol at 07.11.2015 22:37)
Поблагодарили: пока никто не поблагодарил...
Тип торрента: публичный - доступные источники с открытых трекеров: 
Размер: 1,55 GB (занимает 0,35 DVDR, для записи нужно 1 болванка DVDR/RW)
 
 

Яндекс.Метрика powered by Sphinx


В Н И М А Н И Е
Сайт не распространяет и не хранит электронные версии произведений, а лишь бесплатно и без коммерческой выгоды (не требуя взамен платы,
SMS и т.д.) предоставляет доступ к создаваемому пользователями каталогу ссылок на торрент-файлы, которые содержат только списки хеш-сумм.
Убедительная просьба с жалобами обращаться напрямую к пользователю, разместившему торрент файл.

Вверх