Loading...
Error

Виндзор Драйв / Windsor Drive (Натали Байбл) [2015 г., триллер, детектив, WEB-DLRip] VO

Статистика раздачи
Размер:  1,37 GB   |    Зарегистрирован:  1 год   |    Скачан:  16 раз

Полного источника не было: 4 месяца 3 дня

Сидов:  0  |  0 KB/s  ]   Личеров:  0  |  0 KB/s  ]

* - сиды/пиры с внешних источников

   
 
Автор Сообщение

makkol Пол:Муж

07-Ноя-2015 13:02

Виндзор Драйв / Windsor Drive


Год выпуска: 2015
Жанр: триллер, детектив
Производство: США [Absinthe Productions]
Режиссер: Натали Байбл
В ролях: Самира Армстронг, Джиллиан Мюррэй, Мэтт Коэн, Мэнди Мусгрейв, Томми О’Райли, Гари Кон, Бэйли Геддис, Метрикс Фиттен, Каян Дюбуа
Сюжет фильма:
Ривер Миллер – психически неуравновешенный актер, который оставляет прошлое и едет в Голливуд, чтобы заново начать свою жизнь, только он понимает, что от своих внутренних демонов не избавиться.

  • Мировая премьера: 28 августа 2015


Качество видео: WEB-DLRip

Продолжительность: 01:22:16
Формат: AVI
Видео: XviD, 720x400 (16:9), 23.976 fps, 1933 kbps
Аудио: русский, любительский одноголосый закадровый, AC3 5.1, 48 kHz, 384 kbps

Код:

General
Complete name                  : Windsor.Drive.2015.PashaUp.WEB-DLRip.1400.ExKinoRay.avi
Format                         : AVI
Format/Info                    : Audio Video Interleave
File size                      : 1.37 GiB
Duration                       : 1h 22mn
Overall bit rate               : 2 386 Kbps
Writing application            : VirtualDubMod 1.5.10.3 | www.virtualdub-fr.org || (build 2550/release)
Writing library                : VirtualDubMod build 2550/release

Video
ID                             : 0
Format                         : MPEG-4 Visual
Format profile                 : Advanced Simple@L5
Format settings, BVOP          : 1
Format settings, QPel          : No
Format settings, GMC           : No warppoints
Format settings, Matrix        : Custom
Codec ID                       : XVID
Codec ID/Hint                  : XviD
Duration                       : 1h 22mn
Bit rate                       : 1 993 Kbps
Width                          : 720 pixels
Height                         : 400 pixels
Display aspect ratio           : 16:9
Frame rate                     : 23.976 fps
Color space                    : YUV
Chroma subsampling             : 4:2:0
Bit depth                      : 8 bits
Scan type                      : Progressive
Compression mode               : Lossy
Bits/(Pixel*Frame)             : 0.289
Stream size                    : 1.15 GiB (84%)
Writing library                : XviD 73

Audio
ID                             : 1
Format                         : AC-3
Format/Info                    : Audio Coding 3
Mode extension                 : CM (complete main)
Format settings, Endianness    : Big
Codec ID                       : 2000
Duration                       : 1h 22mn
Bit rate mode                  : Constant
Bit rate                       : 384 Kbps
Channel(s)                     : 6 channels
Channel positions              : Front: L C R, Side: L R, LFE
Sampling rate                  : 48.0 KHz
Compression mode               : Lossy
Stream size                    : 226 MiB (16%)
Alignment                      : Split accross interleaves
Interleave, duration           : 42 ms (1.00 video frame)
Interleave, preload duration   : 500 ms
Rip by Enigma
Перевод: dlz099
Озвучивание: Павел Морозов aka PashaUp
Релиз группы:
picpicpicpicpic
Для увеличения картинки щелкните мышкой по превью

Этот торрент недоступен для скачивания без регистрации, однако доступен по публичной magnet-ссылке (источники с публичных трекеров). Перед использованием ссылки прочтите, пожалуйста Пользовательское соглашение, а также как можно дольше оставайтесь на раздаче! Для того, чтобы скачать сам торрент-файл (который видит больше источников), а также для того, чтобы поблагодарить релизера, вам необходимо зарегистрироваться. Если регистрироваться лень - вы можете также попробовать скачать релиз по нашим партнерским ссылкам ниже.

[underverse.su].t59710.torrent
Трекер: Зарегистрирован   [ 07.11.2015 13:02 ]  

Статус: проверено (by makkol at 07.11.2015 22:35)
Поблагодарили: пока никто не поблагодарил...
Тип торрента: публичный - доступные источники с открытых трекеров: 
Размер: 1,37 GB (занимает 0,31 DVDR, для записи нужно 1 болванка DVDR/RW)
 
 

Яндекс.Метрика powered by Sphinx


В Н И М А Н И Е
Сайт не распространяет и не хранит электронные версии произведений, а лишь бесплатно и без коммерческой выгоды (не требуя взамен платы,
SMS и т.д.) предоставляет доступ к создаваемому пользователями каталогу ссылок на торрент-файлы, которые содержат только списки хеш-сумм.
Убедительная просьба с жалобами обращаться напрямую к пользователю, разместившему торрент файл.

Вверх