Loading...
Error

Агорафобия / Agoraphobia (Лу Саймон) [2015 г., триллер, мистика, WEB-DLRip] AVO

Статистика раздачи
Размер:  1,27 GB   |    Зарегистрирован:  1 год   |    Скачан:  20 раз

Полного источника не было: 22 часа

Сидов:  0  |  0 KB/s  ]   Личеров:  0  |  0 KB/s  ]

* - сиды/пиры с внешних источников

   
 
Автор Сообщение

makkol Пол:Муж

07-Ноя-2015 12:44

Агорафобия / Agoraphobia
«Она думала, что внутри безопасней»


Год выпуска: 2015
Жанр: триллер, мистика
Производство: США [Reel Heroine llc, White Lotus Productions]
Режиссер: Лу Саймон
В ролях: Кассандра Скербо, Адам Брудники, Аниела Макгиннесс, Мария Олсен, Тони Тодд, Джема Калеро, Роберто Эскобар
Сюжет фильма:
Девушка, страдающая агарофобией, наследует дом своего отца в отдаленной части архипелага Флорида-Кейс. Когда в доме начинают происходить странные вещи, она обнаруживает, что есть нечто гораздо более страшное и оно находится рядом с ней.

  • Мировая премьера: 11 октября 2015
  • Российская премьера: 17 декабря 2015


Качество видео: WEB-DLRip

Продолжительность: 01:24:51
Формат: AVI
Видео: XviD, 720x304 (2.35:1), 23.976 fps, 2012 kbps
Аудио: русский, авторский одноголосый закадровый (Алексей Толмачев), MP3 2.0, 48 kHz, 128 kbps

Код:

Общее
Полное имя                               : Agoraphobia (2015) rus.avi
Формат                                   : AVI
Формат/Информация                        : Audio Video Interleave
Размер файла                             : 1,27 Гбайт
Продолжительность                        : 1 ч. 24 м.
Общий поток                              : 2150 Кбит/сек
Программа кодирования                    : VirtualDubMod 1.5.10.2 (build 2540/release)
Библиотека кодирования                   : VirtualDubMod build 2540/release

Видео
Идентификатор                            : 0
Формат                                   : MPEG-4 Visual
Профиль формата                          : Advanced Simple@L5
Параметр BVOP формата                    : 1
Параметр QPel формата                    : Нет
Параметр GMC формата                     : Без точки перехода
Параметр матрицы формата                 : Default (MPEG)
Идентификатор кодека                     : XVID
Идентификатор кодека/Подсказка           : XviD
Продолжительность                        : 1 ч. 24 м.
Битрейт                                  : 2012 Кбит/сек
Ширина                                   : 720 пикселей
Высота                                   : 304 пикселя
Соотношение сторон                       : 2,35:1
Частота кадров                           : 23,976 кадра/сек
Цветовое пространство                    : YUV
Субдискретизация насыщенности            : 4:2:0
Битовая глубина                          : 8 бит
Тип развёртки                            : Прогрессивная
Метод сжатия                             : С потерями
Бит/(Пиксели*Кадры)                      : 0.383
Размер потока                            : 1,19 Гбайт (94%)
Библиотека кодирования                   : XviD 64

Аудио
Идентификатор                            : 1
Формат                                   : MPEG Audio
Версия формата                           : Version 1
Профиль формата                          : Layer 3
Режим                                    : Joint stereo
Расширение режима                        : MS Stereo
Идентификатор кодека                     : 55
Идентификатор кодека/Подсказка           : MP3
Продолжительность                        : 1 ч. 24 м.
Вид битрейта                             : Постоянный
Битрейт                                  : 128 Кбит/сек
Каналы                                   : 2 канала
Частота                                  : 48,0 КГц
Метод сжатия                             : С потерями
Размер потока                            : 77,7 Мбайт (6%)
Выравнивание                             : Разделение по промежуткам
Продолжительность промежутка             : 42  мс. (1,00 видеокадр)
Время предзагрузки промежутка            : 500  мс.
picpicpicpicpic
Для увеличения картинки щелкните мышкой по превью

Этот торрент недоступен для скачивания без регистрации, однако доступен по публичной magnet-ссылке (источники с публичных трекеров). Перед использованием ссылки прочтите, пожалуйста Пользовательское соглашение, а также как можно дольше оставайтесь на раздаче! Для того, чтобы скачать сам торрент-файл (который видит больше источников), а также для того, чтобы поблагодарить релизера, вам необходимо зарегистрироваться. Если регистрироваться лень - вы можете также попробовать скачать релиз по нашим партнерским ссылкам ниже.

[underverse.su].t59709.torrent
Трекер: Зарегистрирован   [ 07.11.2015 12:44 ]  

Статус: проверено (by makkol at 07.11.2015 22:34)
Поблагодарили: пока никто не поблагодарил...
Тип торрента: публичный - доступные источники с открытых трекеров: 
Размер: 1,27 GB (занимает 0,29 DVDR, для записи нужно 1 болванка DVDR/RW)
 
 
Похожие темы
Форум Тема Автор Торрент Отв. Посл. сооб.
T Зарубежное кино [DVDRip, Low-Res HDRip, и т.д.] Агорафобия / Agoraphobia (Лу Саймон / Lou Simon) [2015 г., ужасы, триллер, WEB-DLRip] MVO (iTunes) 90ytr90
4 | 0

0 | 329

5

25.09.2016 09:21

T Зарубежное кино [HDDVDRip / BDRip / WEB-DL / HDTV 1080/720р] Агорафобия / Agoraphobia (Лу Саймон / Lou Simon) [2015 г., ужасы, триллер, BDRip 1080p] MVO (iTunes) + Original (Eng) 90ytr90
8 | 0

0 | 334

3

25.09.2016 09:30

T Зарубежное кино [HDDVDRip / BDRip / WEB-DL / HDTV 1080/720р] Агорафобия / Agoraphobia (Лу Саймон / Lou Simon) [2015 г., ужасы, триллер, WEB-DL 720p] MVO (iTunes) + Original (Eng) + Sub (Eng) 90ytr90
14 | 0

0 | 321

3

25.09.2016 09:25


Яндекс.Метрика powered by Sphinx


В Н И М А Н И Е
Сайт не распространяет и не хранит электронные версии произведений, а лишь бесплатно и без коммерческой выгоды (не требуя взамен платы,
SMS и т.д.) предоставляет доступ к создаваемому пользователями каталогу ссылок на торрент-файлы, которые содержат только списки хеш-сумм.
Убедительная просьба с жалобами обращаться напрямую к пользователю, разместившему торрент файл.

Вверх