Loading...
Error

Нянька / Der Nanny (Маттиас Швайгхефер, Торстен Кюнстлер) [2015 г., комедия, HDRip] VO

Статистика раздачи
Размер:  1,37 GB   |    Зарегистрирован:  1 год   |    Скачан:  34 раза

Полного источника не было: 12 часов

Сидов:  0  |  0 KB/s  ]   Личеров:  0  |  0 KB/s  ]

* - сиды/пиры с внешних источников

   
 
Автор Сообщение

makkol Пол:Муж

06-Ноя-2015 15:13

Нянька / Der Nanny


Год выпуска: 2015
Жанр: комедия
Производство: Германия [Erfttal Film, ARRI Productions, Pantaleon Films]
Режиссер: Маттиас Швайгхефер, Торстен Кюнстлер
В ролях: Маттиас Швайгхефер, Милан Пешель, Паула Хартманн, Арвед Фризе, Йоко Винтершайдт, Саша Александер, Илька Бессин, Кирстен Блок
Сюжет фильма:
Ральф возможно единственный человек, кто был готов бросить вызов несправедливости. Во всяком случае, он так считал. Дело в том, что дом, в котором он прожил много лет, теперь по решению каких-то больших начальников должен быть снесен. Ральф решил биться до последнего. Он даже приковал себя к старому холодильнику в последней надежде, но двое спецназовцев вынесли его вместе с холодильником. И за всем этим маячила фигура Клеменса Клина - человека жесткого и неуступчивого. Но судьбе было уготовлено так, что сам Клименс стал заложником своего семейного положения. Двое его детей: Винни и Тео, после смерти мамы всеми средствами выживали из особняка тех, кого их отец принимал на должность няни. Возможно, именно из-за желания мести Ральф решает прийти в этот дом.

  • Мировая премьера: 26 марта 2015


Перевод: Михаил Васильев
Озвучивание: Виктор Береговых

Качество видео: HDRip

Продолжительность: 01:50:19
Формат: AVI
Видео: XviD, 720x304 (2.35:1), 23.976 fps, 1510 kbps
Аудио: русский, любительский одноголосый закадровый, AC3 2.0, 48 kHz, 256 kbps

Код:

Общее
Полное имя                               : Нянька.avi
Формат                                   : AVI
Формат/Информация                        : Audio Video Interleave
Размер файла                             : 1,37 Гбайт
Продолжительность                        : 1 ч. 50 м.
Общий поток                              : 1775 Кбит/сек
Программа кодирования                    : VirtualDubMod 1.5.10.2 (build 2540/release)
Библиотека кодирования                   : VirtualDubMod build 2540/release

Видео
Идентификатор                            : 0
Формат                                   : MPEG-4 Visual
Профиль формата                          : Advanced Simple@L5
Параметр BVOP формата                    : 2
Параметр QPel формата                    : Нет
Параметр GMC формата                     : Без точки перехода
Параметр матрицы формата                 : Default (H.263)
Идентификатор кодека                     : XVID
Идентификатор кодека/Подсказка           : XviD
Продолжительность                        : 1 ч. 50 м.
Битрейт                                  : 1510 Кбит/сек
Ширина                                   : 720 пикселей
Высота                                   : 304 пикселя
Соотношение сторон                       : 2,35:1
Частота кадров                           : 23,976 кадра/сек
Цветовое пространство                    : YUV
Субдискретизация насыщенности            : 4:2:0
Битовая глубина                          : 8 бит
Тип развёртки                            : Прогрессивная
Метод сжатия                             : С потерями
Бит/(Пиксели*Кадры)                      : 0.288
Размер потока                            : 1,16 Гбайт (85%)
Библиотека кодирования                   : XviD 1.2.1 (UTC 2008-12-04)

Аудио
Идентификатор                            : 1
Формат                                   : AC-3
Формат/Информация                        : Audio Coding 3
Расширение режима                        : CM (complete main)
Параметр Endianness формата              : Big
Идентификатор кодека                     : 2000
Продолжительность                        : 1 ч. 50 м.
Вид битрейта                             : Постоянный
Битрейт                                  : 256 Кбит/сек
Каналы                                   : 2 канала
Расположение каналов                     : Front: L R
Частота                                  : 48,0 КГц
Метод сжатия                             : С потерями
Размер потока                            : 202 Мбайт (14%)
Выравнивание                             : Разделение по промежуткам
Продолжительность промежутка             : 42  мс. (1,00 видеокадр)
Время предзагрузки промежутка            : 500  мс.
picpicpicpicpic
Для увеличения картинки щелкните мышкой по превью

Этот торрент недоступен для скачивания без регистрации, однако доступен по публичной magnet-ссылке (источники с публичных трекеров). Перед использованием ссылки прочтите, пожалуйста Пользовательское соглашение, а также как можно дольше оставайтесь на раздаче! Для того, чтобы скачать сам торрент-файл (который видит больше источников), а также для того, чтобы поблагодарить релизера, вам необходимо зарегистрироваться. Если регистрироваться лень - вы можете также попробовать скачать релиз по нашим партнерским ссылкам ниже.

[underverse.su].t59691.torrent
Трекер: Зарегистрирован   [ 06.11.2015 15:13 ]  

Статус: проверено (by makkol at 06.11.2015 23:10)
Поблагодарили: пока никто не поблагодарил...
Тип торрента: публичный - доступные источники с открытых трекеров: 
Размер: 1,37 GB (занимает 0,31 DVDR, для записи нужно 1 болванка DVDR/RW)
 
 
Похожие темы
Форум Тема Автор Торрент Отв. Посл. сооб.
Зарубежное кино [HDDVDRip / BDRip / WEB-DL / HDTV 1080/720р] Нянька / Der Nanny (Маттиас Швайгхефер, Торстен Кюнстлер) [2015 г., комедия, BDRip 720p] VO + Original makkol
9 | 0

0 | 623

26

06.11.2015 15:25


Яндекс.Метрика powered by Sphinx


В Н И М А Н И Е
Сайт не распространяет и не хранит электронные версии произведений, а лишь бесплатно и без коммерческой выгоды (не требуя взамен платы,
SMS и т.д.) предоставляет доступ к создаваемому пользователями каталогу ссылок на торрент-файлы, которые содержат только списки хеш-сумм.
Убедительная просьба с жалобами обращаться напрямую к пользователю, разместившему торрент файл.

Вверх