Loading...
Error

Ужаленные / Stung (Бенжамин Диез) [2015 г., ужасы, комедия, HDRip] MVO

Статистика раздачи
Размер:  1,45 GB   |    Зарегистрирован:  1 год 1 месяц   |    Скачан:  8 раз

Полного источника не было: 3 дня

Сидов:  0  |  0 KB/s  ]   Личеров:  0  |  0 KB/s  ]

* - сиды/пиры с внешних источников

   
 
Автор Сообщение

makkol Пол:Муж

04-Ноя-2015 22:23

Ужаленные / Stung


Год выпуска: 2015
Жанр: ужасы, комедия
Производство: Германия , США [Rat Pack Filmproduktion, XYZ Films]
Режиссер: Бенжамин Диез
В ролях: Мэтью О’Лири, Джессика Кук, Клифтон Коллинз мл., Лэнс Хенриксен, Tony de Maeyer, Флорентина Ламе, Дэвид Мастерсон, Сесилия Пилладо, Kathleen Renish, Даниэль Риззо
Сюжет фильма:
Вечеринка-маскарад заканчивается кровавым кошмаром, когда на людей нападают гигантские осы-убийцы, мутировавшие из обычных ос в огромных хищников. Двое молодых людей из обслуги, работающих на вечеринке, пытаются выжить в окружившем их ужасе. Параллельно у них развиваются чувства симпатии друг к другу…

  • Мировая премьера: 17 апреля 2015


Качество видео: HDRip

Продолжительность: 01:27:05
Формат: AVI
Видео: XviD, 720x304 (2.35:1), 23.976 fps, 1999 kbps
Аудио: русский, профессиональный многоголосый закадровый (iTunes), AC3 5.1, 48 kHz, 384 kbps

Код:

Общее
Полное имя                               : Uzhalenye.2015.P.HDRip.1.46GB.avi
Формат                                   : AVI
Формат/Информация                        : Audio Video Interleave
Размер файла                             : 1,45 Гбайт
Продолжительность                        : 1 ч. 27 м.
Общий поток                              : 2392 Кбит/сек
Программа кодирования                    : VirtualDubMod 1.5.10.2 (build 2540/release)
Библиотека кодирования                   : VirtualDubMod build 2540/release

Видео
Идентификатор                            : 0
Формат                                   : MPEG-4 Visual
Профиль формата                          : Advanced Simple@L5
Параметр BVOP формата                    : 2
Параметр QPel формата                    : Нет
Параметр GMC формата                     : Без точки перехода
Параметр матрицы формата                 : Default (MPEG)
Идентификатор кодека                     : XVID
Идентификатор кодека/Подсказка           : XviD
Продолжительность                        : 1 ч. 27 м.
Битрейт                                  : 1999 Кбит/сек
Ширина                                   : 720 пикселей
Высота                                   : 304 пикселя
Соотношение сторон                       : 2,35:1
Частота кадров                           : 23,976 кадра/сек
Цветовое пространство                    : YUV
Субдискретизация насыщенности            : 4:2:0
Битовая глубина                          : 8 бит
Тип развёртки                            : Прогрессивная
Метод сжатия                             : С потерями
Бит/(Пиксели*Кадры)                      : 0.381
Размер потока                            : 1,22 Гбайт (84%)
Библиотека кодирования                   : XviD 1.2.1 (UTC 2008-12-04)

Аудио
Идентификатор                            : 1
Формат                                   : AC-3
Формат/Информация                        : Audio Coding 3
Расширение режима                        : CM (complete main)
Параметр Endianness формата              : Big
Идентификатор кодека                     : 2000
Продолжительность                        : 1 ч. 27 м.
Вид битрейта                             : Постоянный
Битрейт                                  : 384 Кбит/сек
Каналы                                   : 6 каналов
Расположение каналов                     : Front: L C R, Side: L R, LFE
Частота                                  : 48,0 КГц
Метод сжатия                             : С потерями
Размер потока                            : 239 Мбайт (16%)
Выравнивание                             : Разделение по промежуткам
Продолжительность промежутка             : 42  мс. (1,00 видеокадр)
Время предзагрузки промежутка            : 500  мс.
picpicpicpicpic
Для увеличения картинки щелкните мышкой по превью

Этот торрент недоступен для скачивания без регистрации, однако доступен по публичной magnet-ссылке (источники с публичных трекеров). Перед использованием ссылки прочтите, пожалуйста Пользовательское соглашение, а также как можно дольше оставайтесь на раздаче! Для того, чтобы скачать сам торрент-файл (который видит больше источников), а также для того, чтобы поблагодарить релизера, вам необходимо зарегистрироваться. Если регистрироваться лень - вы можете также попробовать скачать релиз по нашим партнерским ссылкам ниже.

[underverse.su].t59635.torrent
Трекер: Зарегистрирован   [ 04.11.2015 22:23 ]  

Статус: T временная (by makkol at 04.11.2015 23:51)
Поблагодарили: пока никто не поблагодарил...
Тип торрента: публичный - доступные источники с открытых трекеров: 
Размер: 1,45 GB (занимает 1/3 DVDR, для записи нужно 1 болванка DVDR/RW)
 
 
Похожие темы
Форум Тема Автор Торрент Отв. Посл. сооб.
Зарубежное кино [DVDRip, Low-Res HDRip, и т.д.] Ужаленные / Stung (Бенжамин Диез) [2015 г., Ужасы, Мелодрама, Комедия, WEB-DLRip] VO (RUS) + Original (ENG) Ведьмочка
4 | 0

0 | 428

13

09.07.2015 00:23

Зарубежное кино [DVDRip, Low-Res HDRip, и т.д.] Ужаленные / Stung (Бенжамин Диез) [2015 г., Ужасы, Мелодрама, Комедия, WEB-DLRip-AVC] VO (RUS) + Original (ENG) + Subs (ENG) Ведьмочка
9 | 0

0 | 433

6

09.07.2015 00:30

Зарубежное кино [HDDVDRip / BDRip / WEB-DL / HDTV 1080/720р] Ужаленные / Stung (Бенжамин Диез) [2015 г., Ужасы, Мелодрама, Комедия, WEB-DL 720p] VO (RUS) + Original (ENG) + Subs (ENG) Ведьмочка
9 | 0

0 | 568

12

09.07.2015 00:36

T Зарубежное кино [HDDVDRip / BDRip / WEB-DL / HDTV 1080/720р] Ужаленные / Stung (Бенжамин Диез) [2015 г., ужасы, комедия, BDRip 1080p] MVO + Original makkol
2 | 0

0 | 224

1

04.11.2015 22:36


Яндекс.Метрика powered by Sphinx


В Н И М А Н И Е
Сайт не распространяет и не хранит электронные версии произведений, а лишь бесплатно и без коммерческой выгоды (не требуя взамен платы,
SMS и т.д.) предоставляет доступ к создаваемому пользователями каталогу ссылок на торрент-файлы, которые содержат только списки хеш-сумм.
Убедительная просьба с жалобами обращаться напрямую к пользователю, разместившему торрент файл.

Вверх