Loading...
Error

Головоломка / Inside Out (Пит Доктер, Роналдо Дель Кармен) [2015 г., мультфильм, комедия, семейный, BDRip] Dub

Статистика раздачи
Размер:  1,46 GB   |    Зарегистрирован:  1 год   |    Скачан:  81 раз

Полного источника не было: 2 часа 15 минут

Сидов:  0  |  0 KB/s  ]   Личеров:  0  |  0 KB/s  ]

* - сиды/пиры с внешних источников

   
 
Автор Сообщение

makkol Пол:Муж

04-Ноя-2015 10:00

Головоломка / Inside Out
«Нет слов, одни эмоции!»


Год выпуска: 2015
Жанр: мультфильм, комедия, семейный
Производство: США [Pixar Animation Studios, Walt Disney Pictures]
Режиссер: Пит Доктер, Роналдо Дель Кармен
Роли озвучивали: Эми Полер, Дайан Лэйн, Кайл МакЛоклен, Минди Кейлинг, Билл Хейдер, Филлис Смит, Льюис Блэк, Кэтлин Диас
Роли дублировали: Дмитрий Нагиев, Ксения Собчак, Владимир Епифанцев, Натали, Олеся Железняк, Максим Виторган
Сюжет фильма:
Райли — обычная 11-летняя школьница, и, как у каждого из нас, ее поведение определяют пять базовых эмоций: Радость, Печаль, Страх, Гнев и Брезгливость. Эмоции живут в сознании девочки и каждый день помогают ей справляться с проблемами, руководя всеми ее поступками. До поры до времени эмоции живут дружно, но вдруг оказывается, что Райли и ее родителям предстоит переезд из небольшого уютного городка в шумный и людный мегаполис. Каждая из эмоций считает, что именно она лучше прочих знает, что нужно делать в этой непростой ситуации, и в голове у девочки наступает полная неразбериха. Чтобы наладить жизнь в большом городе, освоиться в новой школе и подружиться с одноклассниками, эмоциям Райли предстоит снова научиться работать сообща.

  • Мировая премьера: 18 мая 2015
  • Российская премьера: 18 июня 2015


Релиз: Лицензия. Русский локализованный видеоряд!

Качество видео: BDRip

Продолжительность: 01:34:50
Формат: AVI
Видео: XviD, 704x400 (16:9), 23.976 fps, 1741 kbps
Аудио: русский, дублированный, AC3 5.1, 48 kHz, 448 kbps

Код:

General
Complete name               : Inside.Out.2015.BDRip.bog3417.avi
Format                      : AVI
Format/Info                 : Audio Video Interleave
File size                   : 1.46 GiB
Duration                    : 1h 34mn
Overall bit rate            : 2 198 Kbps
Writing application         : VirtualDubModRus 1.5.10.2 (build 2542/release)
Writing library             : VirtualDubMod build 2542/release

Video
ID                          : 0
Format                      : MPEG-4 Visual
Format profile              : Advanced Simple@L5
Format settings, BVOP       : 1
Format settings, QPel       : No
Format settings, GMC        : No warppoints
Format settings, Matrix     : Custom
Codec ID                    : XVID
Codec ID/Hint               : XviD
Duration                    : 1h 34mn
Bit rate                    : 1 741 Kbps
Width                       : 704 pixels
Height                      : 400 pixels
Display aspect ratio        : 16:9
Frame rate                  : 23.976 fps
Color space                 : YUV
Chroma subsampling          : 4:2:0
Bit depth                   : 8 bits
Scan type                   : Progressive
Compression mode            : Lossy
Bits/(Pixel*Frame)          : 0.258
Stream size                 : 1.15 GiB (79%)
Writing library             : XviD 73

Audio
ID                          : 1
Format                      : AC-3
Format/Info                 : Audio Coding 3
Mode extension              : CM (complete main)
Format settings, Endianness : Big
Codec ID                    : 2000
Duration                    : 1h 34mn
Bit rate mode               : Constant
Bit rate                    : 448 Kbps
Channel(s)                  : 6 channels
Channel positions           : Front: L C R, Side: L R, LFE
Sampling rate               : 48.0 KHz
Compression mode            : Lossy
Stream size                 : 304 MiB (20%)
Alignment                   : Split accross interleaves
Interleave, duration        : 42 ms (1.00 video frame)
Interleave, preload duratio : 500 ms
picpicpicpicpic
Для увеличения картинки щелкните мышкой по превью

Этот торрент недоступен для скачивания без регистрации, однако доступен по публичной magnet-ссылке (источники с публичных трекеров). Перед использованием ссылки прочтите, пожалуйста Пользовательское соглашение, а также как можно дольше оставайтесь на раздаче! Для того, чтобы скачать сам торрент-файл (который видит больше источников), а также для того, чтобы поблагодарить релизера, вам необходимо зарегистрироваться. Если регистрироваться лень - вы можете также попробовать скачать релиз по нашим партнерским ссылкам ниже.

[underverse.su].t59591.torrent
Трекер: Зарегистрирован   [ 04.11.2015 10:00 ]  

Статус: проверено (by makkol at 19.11.2015 23:34)
Поблагодарили: 1 человек
Тип торрента: публичный - доступные источники с открытых трекеров: 
Размер: 1,46 GB (занимает 1/3 DVDR, для записи нужно 1 болванка DVDR/RW)
 
 
Похожие темы
Форум Тема Автор Торрент Отв. Посл. сооб.
Зарубежные мультфильмы Головоломка / Inside Out (Пит Доктер / Pete Docter, Роналдо Дель Кармен / Ronnie Del Carmen) [2015 г., мультфильм, семейный, комедия, HDRip] Dub 90ytr90
33 | 2

0 | 281

3

13.11.2016 12:47

Зарубежные мультфильмы Головоломка / Inside Out (Пит Доктер / Pete Docter, Роналдо Дель Кармен / Ronnie Del Carmen) [2015 г., мультфильм, семейный, комедия, BDRip-AVC] Dub + Original (Eng) + Sub (Rus, Eng) 90ytr90
67 | 0

0 | 278

0

13.11.2016 12:34

Зарубежные мультфильмы Головоломка / Inside Out (Пит Доктер / Pete Docter, Роналдо Дель Кармен / Ronnie Del Carmen) [2015 г., мультфильм, семейный, комедия, BDRip-AVC] Dub + Sub (Rus) 90ytr90
159 | 1

0 | 272

2

13.11.2016 12:29

T Новинки мультфильмов [CAMRip, TS, DVDScr, WP, TC] Головоломка / Inside Out (Пит Доктер, Роналдо Дель Кармен) [2015 г., мультфильм, комедия, семейный, CAMRip] Dub makkol
0 | 0

0 | 1580

161

20.06.2015 13:52

Мультфильмы [HDDVDRip / BDRip / WEB-DL / HDTV 1080/720р] Головоломка / Inside Out (Пит Доктер / Pete Docter, Роналдо Дель Кармен / Ronnie Del Carmen) [2015 г., мультфильм, семейный, комедия, BDRip 720p] 2xDub (Rus, Ukr) + Original (Eng) + Sub (Rus, Eng) 90ytr90
249 | 4

0 | 293

0

13.11.2016 13:17

Мультфильмы [HDDVDRip / BDRip / WEB-DL / HDTV 1080/720р] Головоломка / Inside Out (Пит Доктер / Pete Docter, Роналдо Дель Кармен / Ronnie Del Carmen) [2015 г., мультфильм, семейный, комедия, BDRip 1080p] 2xDub (Rus, Ukr) + Original (Eng) + Sub (Rus, Eng) 90ytr90
119 | 2

0 | 280

1

13.11.2016 13:03

Мультфильмы [HDDVDRip / BDRip / WEB-DL / HDTV 1080/720р] Головоломка / Inside Out (Пит Доктер / Pete Docter, Роналдо Дель Кармен / Ronnie Del Carmen) [2015 г., мультфильм, семейный, комедия, BDRip 720p] 2xDub (Rus, Ukr) + 2xAVO (Живов, Сербин) + Original... 90ytr90
17 | 5

0 | 281

0

13.11.2016 12:44

T Мультфильмы [HDDVDRip / BDRip / WEB-DL / HDTV 1080/720р] Головоломка 3D / Inside Out 3D (Пит Доктер, Роналдо Дель Кармен) [2015 г., мультфильм, комедия, семейный, BDRip 1080p] Dub + Original + Subs makkol
19 | 0

0 | 1224

39

19.10.2015 23:52

Мультфильмы [HDDVDRip / BDRip / WEB-DL / HDTV 1080/720р] Головоломка / Inside Out (Пит Доктер, Роналдо Дель Кармен) [2015 г., мультфильм, комедия, семейный, BDRip 720p] Dub (Rus) + Dub (Ukr) + Original + Subs makkol
13 | 0

0 | 464

25

04.11.2015 10:15

Мультфильмы [HDDVDRip / BDRip / WEB-DL / HDTV 1080/720р] Головоломка / Inside Out (Пит Доктер, Роналдо Дель Кармен) [2015 г., мультфильм, комедия, семейный, BDRip 1080p] Dub (Rus) + Dub (Ukr) + Original + Subs makkol
63 | 0

0 | 584

16

04.11.2015 10:25


Яндекс.Метрика powered by Sphinx


В Н И М А Н И Е
Сайт не распространяет и не хранит электронные версии произведений, а лишь бесплатно и без коммерческой выгоды (не требуя взамен платы,
SMS и т.д.) предоставляет доступ к создаваемому пользователями каталогу ссылок на торрент-файлы, которые содержат только списки хеш-сумм.
Убедительная просьба с жалобами обращаться напрямую к пользователю, разместившему торрент файл.

Вверх