Loading...
Error

Воин (Алексей Андрианов) [2015 г., драма, спорт, WEB-DLRip]

Статистика раздачи
Размер:  1,37 GB   |    Зарегистрирован:  1 год 1 месяц   |    Скачан:  80 раз
Сидов:  1  |  0 KB/s  ]   Личеров:  0  |  0 KB/s  ]

* - сиды/пиры с внешних источников

   
 
Автор Сообщение

makkol Пол:Муж

01-Ноя-2015 12:51

Воин
«Дерись за семью. Борись за любовь»


Год выпуска: 2015
Жанр: драма, спорт
Производство: Россия [ВГТРК, Art Pictures Studio]
Режиссер: Алексей Андрианов
В ролях: Фёдор Бондарчук, Сергей Бондарчук, Светлана Ходченкова, Владимир Яглыч, Юрий Яковлев-Суханов, Александр Новин, Александр Балуев, Мария Андреева, Владимир Селиванов, Екатерина Мельник
Сюжет фильма:
Фильм рассказывает драматическую историю двух братьев, профессиональных спортсменов по боям ММА. Это картина о долге и жизненных ценностях, показанных сквозь призму жизни братьев и их отца — крепких и гордых людей, фильм о семье, об обидах, которые мы носим в себе десятилетиями, о боли, которую мы причиняем подчас бездумно, и о прощении, которому всегда должно найтись место в наших сердцах.

  • Мировая премьера: 1 октября 2015


Качество видео: WEB-DLRip

Продолжительность: 01:27:06
Формат: AVI
Видео: XviD, 720x304 (2.35:1), 25.000 fps, 2044 kbps
Аудио: русский, оригинал, AC3 2.0, 48 kHz, 192 kbps

Код:

Общее
Полное имя                               :B0yH.2015.O.WEB-DLRip.avi
Формат                                   : AVI
Формат/Информация                        : Audio Video Interleave
Размер файла                             : 1,37 Гбайт
Продолжительность                        : 1 ч. 27 м.
Общий поток                              : 2246 Кбит/сек
Программа кодирования                    : VirtualDubMod 1.5.10.3 | | (build 2550/release)
Библиотека кодирования                   : VirtualDubMod build 2550/release

Видео
Идентификатор                            : 0
Формат                                   : MPEG-4 Visual
Профиль формата                          : Advanced Simple@L5
Параметр BVOP формата                    : 2
Параметр QPel формата                    : Нет
Параметр GMC формата                     : Без точки перехода
Параметр матрицы формата                 : Default (MPEG)
Идентификатор кодека                     : XVID
Идентификатор кодека/Подсказка           : XviD
Продолжительность                        : 1 ч. 27 м.
Битрейт                                  : 2044 Кбит/сек
Ширина                                   : 720 пикселей
Высота                                   : 304 пикселя
Соотношение сторон                       : 2,35:1
Частота кадров                           : 25,000 кадров/сек
Цветовое пространство                    : YUV
Субдискретизация насыщенности            : 4:2:0
Битовая глубина                          : 8 бит
Тип развёртки                            : Прогрессивная
Метод сжатия                             : С потерями
Бит/(Пиксели*Кадры)                      : 0.374
Размер потока                            : 1,24 Гбайт (91%)
Библиотека кодирования                   : XviD 1.2.1 (UTC 2008-12-04)

Аудио
Идентификатор                            : 1
Формат                                   : AC-3
Формат/Информация                        : Audio Coding 3
Расширение режима                        : CM (complete main)
Параметр Endianness формата              : Big
Идентификатор кодека                     : 2000
Продолжительность                        : 1 ч. 27 м.
Вид битрейта                             : Постоянный
Битрейт                                  : 192 Кбит/сек
Каналы                                   : 2 канала
Расположение каналов                     : Front: L R
Частота                                  : 48,0 КГц
Метод сжатия                             : С потерями
Задержка видео                           : 16 мс.
Размер потока                            : 120 Мбайт (9%)
Выравнивание                             : Разделение по промежуткам
Продолжительность промежутка             : 40  мс. (1,00 видеокадр)
Время предзагрузки промежутка            : 500  мс.
picpicpicpicpic
Для увеличения картинки щелкните мышкой по превью

Этот торрент недоступен для скачивания без регистрации, однако доступен по публичной magnet-ссылке (источники с публичных трекеров). Перед использованием ссылки прочтите, пожалуйста Пользовательское соглашение, а также как можно дольше оставайтесь на раздаче! Для того, чтобы скачать сам торрент-файл (который видит больше источников), а также для того, чтобы поблагодарить релизера, вам необходимо зарегистрироваться. Если регистрироваться лень - вы можете также попробовать скачать релиз по нашим партнерским ссылкам ниже.

[underverse.su].t59528.torrent
Трекер: Зарегистрирован   [ 01.11.2015 12:51 ]  

Статус: проверено (by makkol at 04.11.2015 00:01)
Поблагодарили: пока никто не поблагодарил...
Тип торрента: публичный - доступные источники с открытых трекеров: 
Размер: 1,37 GB (занимает 0,31 DVDR, для записи нужно 1 болванка DVDR/RW)
 
 
Похожие темы
Форум Тема Автор Торрент Отв. Посл. сооб.
Наше кино [HDDVDRip / BDRip / WEB-DL / HDTV 1080/720р] Воин (Алексей Андрианов) [2015 г., драма, спорт, WEB-DL 1080p] makkol
95 | 0

0 | 548

56

01.11.2015 12:59


Яндекс.Метрика powered by Sphinx


В Н И М А Н И Е
Сайт не распространяет и не хранит электронные версии произведений, а лишь бесплатно и без коммерческой выгоды (не требуя взамен платы,
SMS и т.д.) предоставляет доступ к создаваемому пользователями каталогу ссылок на торрент-файлы, которые содержат только списки хеш-сумм.
Убедительная просьба с жалобами обращаться напрямую к пользователю, разместившему торрент файл.

Вверх