Loading...
Error

Баллада: Неназванная песнь о любви / Ballad: The Nameless Song of Love / Ballad: Namonaki koi no uta (Такаси Ямадзаки) [2009 г., боевик, фантастика, историческая драма, DVDRip] Original + VO

Статистика раздачи
Размер:  1,55 GB   |    Зарегистрирован:  1 год 1 месяц   |    Скачан:  14 раз

Полного источника не было: 2 месяца 3 дня

Сидов:  0  |  0 KB/s  ]   Личеров:  0  |  0 KB/s  ]

* - сиды/пиры с внешних источников

   
 
Автор Сообщение

makkol Пол:Муж

30-Окт-2015 23:23

Баллада: Неназванная песнь о любви / Ballad: The Nameless Song of Love / Ballad: Namonaki koi no uta


Год выпуска: 2009
Жанр: боевик, фантастика, историческая драма
Страна: Япония
Режиссер: Такаси Ямадзаки
В ролях: Цуёси Кусанаги, Юи Арагаки, Акаши Такей, Мичитака Тсутсуи, Юи Нацукава, Мицуру Фукикоси
Сюжет фильма:
Когда неудачи и жизненные трудности разом сваливаются на голову маленького Синити, он убегает к старому дереву у статуи Будды помолиться о том, чтобы обрести смелость и мужество. В следующее мгновение он появляется в феодальной Японии эпохи Сэнгоку Дзидай в провинции Касуга, в самый разгар сражения. Здесь он сближается с известным самураем по прозвищу Онидзири (Демон Идзири). Идзири бесстрашен в бою, но на любовном фронте его преследуют неудачи. Ещё в юности он был влюблен в принцессу Рэн, и эта любовь была взаимной, поэтому самурай тешил себя надеждой когда-нибудь сделать ей предложение и жениться по любви. Но когда могущественный лорд Такатора просит руку принцессы, она не смеет отказать ему, опасаясь за жизнь своего клана. Семья Синити ищет своего ребёнка и невероятным образом тоже попадает в прошлое. Они находят друг друга в Касуга, но вместе с этим приносят шокирующее известие о том, что в Истории ни разу не упоминается об этом клане, как если бы его никогда не было. Все родовые ветви, многовековые традиции, победы в великих битвах с другими кланами оказались всего лишь иллюзией. В свете этой новости, принцесса Рен нарушает своё обещание выйти замуж за грозного лорда Такатора. Идзири вне себя от радости, как и принцесса Рэн, но повелитель не привык к отказам, и его гнев приводит к страшной битве...

  • Мировая премьера: 5 сентября 2009


Качество видео: DVDRip

Продолжительность: 02:12:36
Формат: AVI
Видео: XviD, 640X272 (2.35:1), 1019 kbps
Аудио #1: японский, оригинал, AC3 5.1, 448 kbps
Аудио #2: русский, любительский одноголосый закадровый (Jet), AC3 2.0, 192 kbps
Субтитры: русские (Kendzin) внешние, SRT

Код:

Общее
Полное имя                               : Ballad - Namonaki Koi no Uta (2009).avi
Формат                                   : AVI
Формат/Информация                        : Audio Video Interleave
Размер файла                             : 1,55 Гбайт
Продолжительность                        : 2 ч. 12 м.
Общий поток                              : 1673 Кбит/сек
Программа кодирования                    : VirtualDubMod 1.5.10.2 (build 2540/release)
Библиотека кодирования                   : VirtualDubMod build 2540/release

Видео
Идентификатор                            : 0
Формат                                   : MPEG-4 Visual
Профиль формата                          : Simple@L3
Параметр BVOP формата                    : 3
Параметр QPel формата                    : Нет
Параметр GMC формата                     : Без точки перехода
Параметр матрицы формата                 : Default (MPEG)
Режим смешивания                         : Сжатый битовый поток
Идентификатор кодека                     : XVID
Идентификатор кодека/Подсказка           : XviD
Продолжительность                        : 2 ч. 12 м.
Битрейт                                  : 1019 Кбит/сек
Ширина                                   : 640 пикселей
Высота                                   : 272 пикселя
Соотношение сторон                       : 2,35:1
Частота кадров                           : 23,976 кадра/сек
Цветовое пространство                    : YUV
Субдискретизация насыщенности            : 4:2:0
Битовая глубина                          : 8 бит
Тип развёртки                            : Прогрессивная
Метод сжатия                             : С потерями
Бит/(Пиксели*Кадры)                      : 0.244
Размер потока                            : 966 Мбайт (61%)
Библиотека кодирования                   : XviD 1.0.3 (UTC 2004-12-20)

Аудио #1
Идентификатор                            : 1
Формат                                   : AC-3
Формат/Информация                        : Audio Coding 3
Расширение режима                        : CM (complete main)
Параметр Endianness формата              : Big
Идентификатор кодека                     : 2000
Продолжительность                        : 2 ч. 12 м.
Вид битрейта                             : Постоянный
Битрейт                                  : 448 Кбит/сек
Каналы                                   : 6 каналов
Расположение каналов                     : Front: L C R, Side: L R, LFE
Частота                                  : 48,0 КГц
Метод сжатия                             : С потерями
Размер потока                            : 425 Мбайт (27%)
Выравнивание                             : Разделение по промежуткам
Продолжительность промежутка             : 42  мс. (1,00 видеокадр)
Время предзагрузки промежутка            : 500  мс.

Аудио #2
Идентификатор                            : 2
Формат                                   : AC-3
Формат/Информация                        : Audio Coding 3
Расширение режима                        : CM (complete main)
Параметр Endianness формата              : Big
Идентификатор кодека                     : 2000
Продолжительность                        : 2 ч. 12 м.
Вид битрейта                             : Постоянный
Битрейт                                  : 192 Кбит/сек
Каналы                                   : 2 канала
Расположение каналов                     : Front: L R
Частота                                  : 48,0 КГц
Метод сжатия                             : С потерями
Размер потока                            : 182 Мбайт (11%)
Выравнивание                             : Разделение по промежуткам
Продолжительность промежутка             : 42  мс. (1,00 видеокадр)
Время предзагрузки промежутка            : 500  мс.
picpicpicpicpic
Для увеличения картинки щелкните мышкой по превью

Этот торрент недоступен для скачивания без регистрации, однако доступен по публичной magnet-ссылке (источники с публичных трекеров). Перед использованием ссылки прочтите, пожалуйста Пользовательское соглашение, а также как можно дольше оставайтесь на раздаче! Для того, чтобы скачать сам торрент-файл (который видит больше источников), а также для того, чтобы поблагодарить релизера, вам необходимо зарегистрироваться. Если регистрироваться лень - вы можете также попробовать скачать релиз по нашим партнерским ссылкам ниже.

[underverse.su].t59503.torrent
Трекер: Зарегистрирован   [ 30.10.2015 23:23 ]  

Статус: проверено (by makkol at 31.10.2015 23:11)
Поблагодарили: пока никто не поблагодарил...
Тип торрента: публичный - доступные источники с открытых трекеров: 
Размер: 1,55 GB (занимает 0,35 DVDR, для записи нужно 1 болванка DVDR/RW)
 
 

Яндекс.Метрика powered by Sphinx


В Н И М А Н И Е
Сайт не распространяет и не хранит электронные версии произведений, а лишь бесплатно и без коммерческой выгоды (не требуя взамен платы,
SMS и т.д.) предоставляет доступ к создаваемому пользователями каталогу ссылок на торрент-файлы, которые содержат только списки хеш-сумм.
Убедительная просьба с жалобами обращаться напрямую к пользователю, разместившему торрент файл.

Вверх