Loading...
Error

Таинство / The Sacrament (Ти Уэст) [2013 г., ужасы, триллер, HDRip] MVO

Статистика раздачи
Размер:  1,37 GB   |    Зарегистрирован:  1 год 1 месяц   |    Скачан:  16 раз

Полного источника не было: 6 месяцев

Сидов:  0  |  0 KB/s  ]   Личеров:  0  |  0 KB/s  ]

* - сиды/пиры с внешних источников

   
 
Автор Сообщение

makkol Пол:Муж

30-Окт-2015 13:48

Таинство / The Sacrament


Год выпуска: 2013
Жанр: ужасы, триллер
Производство: США [Arcade Pictures, Worldview Entertainment]
Режиссер: Ти Уэст
В ролях: Эми Саймец, Джо Сванберг, Кейт Лин Шейл, Эй Джей Боуэн, Джин Джонс, Эндрю Неннингер, Шоун Парсонс, Мэдисон Эбшер, Донна Биско
Сюжет фильма:
Два журналиста едут к родственнику одного из них, который проживает в отдаленной коммуне, жители которой подчиняются таинственному отцу. Не сложно догадаться, что для героев ничем хорошим эта поездка не закончится…

  • Мировая премьера: 2 сентября 2013


Качество видео: HDRip

Продолжительность: 01:39:08
Формат: AVI
Видео: XviD, 720x400 (16:9), 23.976 fps, 1773 kbps
Аудио: русский, профессиональный многоголосый закадровый (официальный звук), AC3 2.0, 48 kHz, 192 kbps

Код:

Общее
Полное имя                               : Tainstvo.2013.P.HDRip.avi
Формат                                   : AVI
Формат/Информация                        : Audio Video Interleave
Размер файла                             : 1,37 Гбайт
Продолжительность                        : 1 ч. 39 м.
Общий поток                              : 1974 Кбит/сек
Программа кодирования                    : VirtualDubMod 1.5.10.2 (build 2540/release)
Библиотека кодирования                   : VirtualDubMod build 2540/release

Видео
Идентификатор                            : 0
Формат                                   : MPEG-4 Visual
Профиль формата                          : Advanced Simple@L5
Параметр BVOP формата                    : 2
Параметр QPel формата                    : Нет
Параметр GMC формата                     : Без точки перехода
Параметр матрицы формата                 : Default (MPEG)
Идентификатор кодека                     : XVID
Идентификатор кодека/Подсказка           : XviD
Продолжительность                        : 1 ч. 39 м.
Битрейт                                  : 1773 Кбит/сек
Ширина                                   : 720 пикселей
Высота                                   : 400 пикселей
Соотношение сторон                       : 16:9
Частота кадров                           : 23,976 кадра/сек
Цветовое пространство                    : YUV
Субдискретизация насыщенности            : 4:2:0
Битовая глубина                          : 8 бит
Тип развёртки                            : Прогрессивная
Метод сжатия                             : С потерями
Бит/(Пиксели*Кадры)                      : 0.257
Размер потока                            : 1,23 Гбайт (90%)
Библиотека кодирования                   : XviD 1.2.1 (UTC 2008-12-04)

Аудио
Идентификатор                            : 1
Формат                                   : AC-3
Формат/Информация                        : Audio Coding 3
Расширение режима                        : CM (complete main)
Параметр Endianness формата              : Big
Идентификатор кодека                     : 2000
Продолжительность                        : 1 ч. 39 м.
Вид битрейта                             : Постоянный
Битрейт                                  : 192 Кбит/сек
Каналы                                   : 2 канала
Расположение каналов                     : Front: L R
Частота                                  : 48,0 КГц
Метод сжатия                             : С потерями
Размер потока                            : 136 Мбайт (10%)
Выравнивание                             : Разделение по промежуткам
Продолжительность промежутка             : 42  мс. (1,00 видеокадр)
Время предзагрузки промежутка            : 500  мс.
picpicpicpicpic
Для увеличения картинки щелкните мышкой по превью

Этот торрент недоступен для скачивания без регистрации, однако доступен по публичной magnet-ссылке (источники с публичных трекеров). Перед использованием ссылки прочтите, пожалуйста Пользовательское соглашение, а также как можно дольше оставайтесь на раздаче! Для того, чтобы скачать сам торрент-файл (который видит больше источников), а также для того, чтобы поблагодарить релизера, вам необходимо зарегистрироваться. Если регистрироваться лень - вы можете также попробовать скачать релиз по нашим партнерским ссылкам ниже.

[underverse.su].t59498.torrent
Трекер: Зарегистрирован   [ 30.10.2015 13:48 ]  

Статус: проверено (by makkol at 31.10.2015 23:05)
Поблагодарили: 1 человек
Тип торрента: публичный - доступные источники с открытых трекеров: 
Размер: 1,37 GB (занимает 0,31 DVDR, для записи нужно 1 болванка DVDR/RW)
 
 
Похожие темы
Форум Тема Автор Торрент Отв. Посл. сооб.
Зарубежное кино [DVDRip, Low-Res HDRip, и т.д.] Таинство / The Sacrament (Тай Уэст / Ti West) [2013 г., ужасы, триллер, HDRip] VO (datynet) 90ytr90
11 | 0

0 | 588

5

18.10.2014 08:33

Зарубежное кино [HDDVDRip / BDRip / WEB-DL / HDTV 1080/720р] Таинство / The Sacrament (Тай Уэст) [2013 г., Ужасы, Триллер, BDRip 720p] VO (RUS, datynet) + Original (ENG) + Subs (RUS, ENG) Ведьмочка
4 | 0

0 | 451

5

19.10.2014 20:02

Adarvik Пол:Муж

31-Окт-2015 13:24

Коллективный портрет поселенцев из «Райской общины» — то, что больше всего интересует режиссёра и становится самой убедительной частью фильма. Бросается в глаза не только отсутствие элементарных навыков критического мышления, но и крайняя беззащитность бедняг, доверившихся чужой воле. Действие фильма отсылает к 70-м годам, и неудивительно, что как минимум половина общины — чернокожие, часто не имевшие в Штатах ни малейших шансов на достойную жизнь. Поселенцы Уэста — давно дезориентированные люди с рабским мироощущением, которыми при желании можно умело манипулировать.

Яндекс.Метрика powered by Sphinx


В Н И М А Н И Е
Сайт не распространяет и не хранит электронные версии произведений, а лишь бесплатно и без коммерческой выгоды (не требуя взамен платы,
SMS и т.д.) предоставляет доступ к создаваемому пользователями каталогу ссылок на торрент-файлы, которые содержат только списки хеш-сумм.
Убедительная просьба с жалобами обращаться напрямую к пользователю, разместившему торрент файл.

Вверх