Loading...
Error

Прежде чем я уйду / Just Before I Go (Кортни Кокс) [2014 г., драма, комедия, HDRip] MVO

Статистика раздачи
Размер:  1,37 GB   |    Зарегистрирован:  1 год 1 месяц   |    Скачан:  33 раза

Полного источника не было: 1 месяц 22 дня

Сидов:  0  |  0 KB/s  ]   Личеров:  0  |  0 KB/s  ]

* - сиды/пиры с внешних источников

   
 
Автор Сообщение

makkol Пол:Муж

29-Окт-2015 22:52

Прежде чем я уйду / Just Before I Go


Год выпуска: 2014
Жанр: драма, комедия
Производство: США [Coquette Productions, New Artists Alliance]
Режиссер: Кортни Кокс
В ролях: Шонн Уильям Скотт, Оливия Тирлби, Гаррет Диллахант, Кейт Уолш, Кайл Галлнер, МакКензи Марш, Ивэн Росс, Роб Риггл, Конни Стивенс, Дэвид Аркетт
Сюжет фильма:
Жизнь Теда потрепала его так, что стал задумываться о самоубийстве. До такого решения мужчина шел долгое время, ведь еще с самого детства он ощутил на себе, что такое неприятности. Когда он был подростком, то его постоянно терзали и оскорбляли хулиганы, а учитель математики и вовсе любил унижать Теда перед остальными учениками. Со временем детские обиды поутихли, но все же неприятный осадок остался. По стечению обстоятельств, уже в зрелом возрасте Тед встречает своих обидчиков из детства. Как оказалось, жизнь у них сложилась тоже совсем непросто, ведь один хулиган, теперь уже вдовец и самостоятельно воспитывает сына с синдромом Дауна, и содержит его на свой очень скромный заработок. Преподаватель математики и вовсе сошел с ума, и теперь проходит лечение в больнице для душевнобольных. Хотя, жизнь, по сути, наказала обидчиков Теда, но его все равно не покидают мысли о суициде…

  • Мировая премьера: 24 апреля 2014


Качество видео: HDRip

Продолжительность: 01:30:43
Формат: AVI
Видео: XviD, 720x304 (2.35:1), 23.976 fps, 1955 kbps
Аудио: русский, профессиональный многоголосый закадровый (официальный звук), AC3 2.0, 48 kHz, 192 kbps

Код:

General
Название                            : Just Before I Go.2014.P.HDRip.avi
Формат                                   : AVI
Формат/Info                              : Audio Video Interleave
Размер файла                                : 1.37 GiB
Длительность                                 : 1h 30mn
Общий Битрейт                         : 2 156 Kbps
Создано приложением                      : VirtualDubMod 1.5.10.2 (build 2540/release)
Writing library                          : VirtualDubMod build 2540/release

Video
ID                                       : 0
Формат                                   : MPEG-4 Visual
Формат profile                           : Advanced Simple@L5
Формат настройки, BVOP                    : 2
Формат настройки, QPel                    : No
Формат настройки, GMC                     : No warppoints
Формат настройки, Matrix                  : Default (MPEG)
Кодек ID                                 : XVID
Кодек ID/Hint                            : XviD
Длительность                                 : 1h 30mn
Битрейт                                 : 1 955 Kbps
Width                                    : 720 пикселей
Высота                                   : 304 пикселей
Соотношение кадра                     : 2.35:1
Частота кадров                               : 23.976 fps
Цветопередача                              : YUV
Chroma subsampling                       : 4:2:0
Разрядность                                : 8 bits
Тип сканирования                                : Progressive
Режим сжатия                         : Lossy
Bits/(Pixel*Frame)                       : 0.372
Размер потока                              : 1.24 GiB (91%)
Writing library                          : XviD 1.2.1 (UTC 2008-12-04)

Audio
ID                                       : 1
Формат                                   : AC-3
Формат/Info                              : Audio Coding 3
Расширение режима                           : CM (complete main)
Кодек ID                                 : 2000
Длительность                                 : 1h 30mn
Битрейт mode                            : Constant
Битрейт                                 : 192 Kbps
Каналы(s)                               : 2 канала
Каналы positions                        : Front: L R
Частота                            : 48.0 KHz
Разрядность                                : 16 bits
Режим сжатия                         : Lossy
Размер потока                              : 125 MiB (9%)
Выравнивание                                : Split accross interleaves
Interleave, Длительность                     : 42 ms (1.00 video frame)
Interleave, preload Длительность             : 500 ms
picpicpicpicpic
Для увеличения картинки щелкните мышкой по превью

Этот торрент недоступен для скачивания без регистрации, однако доступен по публичной magnet-ссылке (источники с публичных трекеров). Перед использованием ссылки прочтите, пожалуйста Пользовательское соглашение, а также как можно дольше оставайтесь на раздаче! Для того, чтобы скачать сам торрент-файл (который видит больше источников), а также для того, чтобы поблагодарить релизера, вам необходимо зарегистрироваться. Если регистрироваться лень - вы можете также попробовать скачать релиз по нашим партнерским ссылкам ниже.

[underverse.su].t59488.torrent
Трекер: Зарегистрирован   [ 29.10.2015 22:52 ]  

Статус: проверено (by makkol at 31.10.2015 23:03)
Поблагодарили: пока никто не поблагодарил...
Тип торрента: публичный - доступные источники с открытых трекеров: 
Размер: 1,37 GB (занимает 0,31 DVDR, для записи нужно 1 болванка DVDR/RW)
 
 
Похожие темы
Форум Тема Автор Торрент Отв. Посл. сооб.
Зарубежное кино [DVDRip, Low-Res HDRip, и т.д.] Прежде чем я усну / Before I Go to Sleep (Роуэн Жоффе / Rowan Joffe) [2014 г., триллер, детектив, драма, WEBRip] Dub (чистый звук) + Original (Eng) + hardsub 90ytr90
83 | 1

0 | 676

20

21.11.2014 17:51

Зарубежное кино [DVDRip, Low-Res HDRip, и т.д.] Прежде чем я усну / Before I Go to Sleep (Роуэн Жоффе / Rowan Joffe) [2014 г., триллер, детектив, драма, HDRip] Паукан
27 | 0

0 | 691

28

22.12.2014 10:40

Зарубежное кино [DVDRip, Low-Res HDRip, и т.д.] Прежде чем мы расстанемся / Before We Go (Крис Эванс) [2014 г., драма, мелодрама, комедия, HDRip] MVO makkol
1 | 0

0 | 705

46

12.11.2015 23:12

Зарубежное кино [HDDVDRip / BDRip / WEB-DL / HDTV 1080/720р] Прежде чем я усну / Before I Go to Sleep BDRip (Роуэн Жоффе / Rowan Joffe) [2014 г., триллер, детектив, драма, BDRip 720p] Dub + Original Паукан
2 | 0

0 | 619

14

22.12.2014 10:44

Зарубежное кино [HDDVDRip / BDRip / WEB-DL / HDTV 1080/720р] Прежде чем я уйду / Just Before I Go (Кортни Кокс) [2014 г., драма, комедия, BDRip 1080p] MVO + Original makkol
3 | 0

0 | 617

20

29.10.2015 23:02

Зарубежное кино [HDDVDRip / BDRip / WEB-DL / HDTV 1080/720р] Прежде чем мы расстанемся / Before We Go (Крис Эванс) [2014 г., драма, мелодрама, комедия, BDRip 1080p] MVO + Original makkol
6 | 0

0 | 663

20

12.11.2015 23:23


Яндекс.Метрика powered by Sphinx


В Н И М А Н И Е
Сайт не распространяет и не хранит электронные версии произведений, а лишь бесплатно и без коммерческой выгоды (не требуя взамен платы,
SMS и т.д.) предоставляет доступ к создаваемому пользователями каталогу ссылок на торрент-файлы, которые содержат только списки хеш-сумм.
Убедительная просьба с жалобами обращаться напрямую к пользователю, разместившему торрент файл.

Вверх