Loading...
Error

Зараженная / Мэгги / Maggie (Генри Хобсон) [2015 г., драма, триллер, ужасы, HDRip] MVO

Статистика раздачи
Размер:  1,46 GB   |    Зарегистрирован:  1 год 1 месяц   |    Скачан:  41 раз

Полного источника не было: 13 часов

Сидов:  0  |  0 KB/s  ]   Личеров:  0  |  0 KB/s  ]

* - сиды/пиры с внешних источников

   
 
Автор Сообщение

makkol Пол:Муж

29-Окт-2015 22:15

Зараженная / Мэгги / Maggie


Год выпуска: 2015
Жанр: драма, триллер, ужасы
Производство: США , Швейцария [Gold Star Films, Lotus Entertainment (II), Matt Baer Films, Silver Reel, Sly Predator]
Режиссер: Генри Хобсон
В ролях: Арнольд Шварценеггер, Эбигейл Бреслин, Джоэли Ричардсон, Лора Кайюэтт, Денис Уильямсон, Дж.Д. Эвермор, Рэден Грир, Дэна Гурье, Эми Брассетт, Эйден Флауэрс
Сюжет фильма:
Девочка-подросток Мэгги заражается болезнью, медленно превращающей инфицированных в зомби. Правительство организует карантин для инфицированных, где их помещают в изоляцию. Её любящий отец не готов помещать её в карантин, и она живёт вместе с ним.

  • Мировая премьера: 22 апреля 2015
  • Российская премьера: 29 октября 2015


Качество видео: HDRip

Продолжительность: 01:35:04
Формат: AVI
Видео: XviD, 720x304 (2.35:1), 23.976 fps, 1808 kbps
Аудио: русский, профессиональный многоголосый закадровый (iTunes), AC3 5.1, 48 kHz, 384 kbps

Код:

General
Название : 3apazh0H41a.2015.P.HDRip.avi
Формат : AVI
Формат/Info : Audio Video Interleave
Размер файла : 1.46 GiB
Длительность : 1h 35mn
Общий Битрейт : 2 202 Kbps
Создано приложением : VirtualDubMod 1.5.10.3 | www.virtualdub-fr.org || (build 2550/release)
Writing library : VirtualDubMod build 2550/release

Video
ID : 0
Формат : MPEG-4 Visual
Формат profile : Advanced Simple@L5
Формат настройки, BVOP : 2
Формат настройки, QPel : No
Формат настройки, GMC : No warppoints
Формат настройки, Matrix : Default (MPEG)
Кодек ID : XVID
Кодек ID/Hint : XviD
Длительность : 1h 35mn
Битрейт : 1 808 Kbps
Width : 720 пикселей
Высота : 304 пикселей
Соотношение кадра : 2.35:1
Частота кадров : 23.976 fps
Цветопередача : YUV
Chroma subsampling : 4:2:0
Разрядность : 8 bits
Тип сканирования : Progressive
Режим сжатия : Lossy
Bits/(Pixel*Frame) : 0.345
Размер потока : 1.20 GiB (82%)
Writing library : XviD 1.2.1 (UTC 2008-12-04)

Audio
ID : 1
Формат : AC-3
Формат/Info : Audio Coding 3
Расширение режима : CM (complete main)
Кодек ID : 2000
Длительность : 1h 35mn
Битрейт mode : Constant
Битрейт : 384 Kbps
Каналы(s) : 6 каналов
Каналы positions : Front: L C R, Side: L R, LFE
Частота : 48.0 KHz
Разрядность : 16 bits
Режим сжатия : Lossy
Размер потока : 261 MiB (17%)
Выравнивание : Split accross interleaves
Interleave, Длительность : 42 ms (1.00 video frame)
Interleave, preload Длительность : 500 ms
picpicpicpicpic
Для увеличения картинки щелкните мышкой по превью

Этот торрент недоступен для скачивания без регистрации, однако доступен по публичной magnet-ссылке (источники с публичных трекеров). Перед использованием ссылки прочтите, пожалуйста Пользовательское соглашение, а также как можно дольше оставайтесь на раздаче! Для того, чтобы скачать сам торрент-файл (который видит больше источников), а также для того, чтобы поблагодарить релизера, вам необходимо зарегистрироваться. Если регистрироваться лень - вы можете также попробовать скачать релиз по нашим партнерским ссылкам ниже.

[underverse.su].t59484.torrent
Трекер: Зарегистрирован   [ 29.10.2015 22:15 ]  

Статус: T временная (by makkol at 31.10.2015 22:58)
Поблагодарили: пока никто не поблагодарил...
Тип торрента: публичный - доступные источники с открытых трекеров: 
Размер: 1,46 GB (занимает 0,33 DVDR, для записи нужно 1 болванка DVDR/RW)
 
 
Похожие темы
Форум Тема Автор Торрент Отв. Посл. сооб.
Зарубежное кино [DVDRip, Low-Res HDRip, и т.д.] Заражённая / Contracted (Эрик Инглэнд) [2013 г., ужасы, триллер, драма, WEB-DLRip] VO (Xixidok) + Original 90ytr90
3 | 0

0 | 410

30

01.01.2014 17:57

Зарубежное кино [DVDRip, Low-Res HDRip, и т.д.] Заражённая 2 / Инфекция: Фаза 2 / Contracted: Phase II (Джош Форбс) [2015 г., ужасы, триллер, драма, WEB-DLRip] VO (Xixidok) + Original makkol
26 | 0

0 | 557

24

05.09.2015 22:34

Зарубежное кино [HDDVDRip / BDRip / WEB-DL / HDTV 1080/720р] Заражённая 2 / Инфекция: Фаза 2 / Contracted: Phase II (Джош Форбс) [2015 г., ужасы, триллер, драма, WEB-DL 720p] VO (Xixidok) + Original + Subs (Eng) makkol
14 | 0

0 | 692

27

05.09.2015 22:47

T Зарубежное кино [HDDVDRip / BDRip / WEB-DL / HDTV 1080/720р] Зараженная / Мэгги / Maggie (Генри Хобсон) [2015 г., драма, триллер, ужасы, BDRip 720p] MVO + Original makkol
28 | 1

0 | 536

16

29.10.2015 22:27

T Зарубежное кино [HDDVDRip / BDRip / WEB-DL / HDTV 1080/720р] Зараженная / Мэгги / Maggie (Генри Хобсон) [2015 г., драма, триллер, ужасы, BDRip 1080p] MVO + Original makkol
6 | 0

0 | 748

20

29.10.2015 22:37


Яндекс.Метрика powered by Sphinx


В Н И М А Н И Е
Сайт не распространяет и не хранит электронные версии произведений, а лишь бесплатно и без коммерческой выгоды (не требуя взамен платы,
SMS и т.д.) предоставляет доступ к создаваемому пользователями каталогу ссылок на торрент-файлы, которые содержат только списки хеш-сумм.
Убедительная просьба с жалобами обращаться напрямую к пользователю, разместившему торрент файл.

Вверх