Loading...
Error

Производитель игр / Создатель игр / The Games Maker / El inventor de juegos (Хуан Пабло Бускарини) [2014 г., приключения, семейный, DVDRip] VO + Original + Subs

Статистика раздачи
Размер:  1,46 GB   |    Зарегистрирован:  1 год 1 месяц   |    Скачан:  20 раз

Полного источника не было: 7 месяцев

Сидов:  0  |  0 KB/s  ]   Личеров:  0  |  0 KB/s  ]

* - сиды/пиры с внешних источников

   
 
Автор Сообщение

makkol Пол:Муж

29-Окт-2015 14:37

Производитель игр / Создатель игр / The Games Maker / El inventor de juegos


Год выпуска: 2014
Жанр: приключения, семейный
Производство: Аргентина , Канада , Италия [7Glab Entertainment, Orinoco Films, Sepia Films]
Режиссер: Хуан Пабло Бускарини
В ролях: Джозеф Файнс, Томас Кэвэна, Меган Чарпентье, Валентина Лодовини, Роберт Верлак, Алехандро Авада, Эдвард Аснер, Дэвид Мазоуз, Алан Ферраро, Рэймонд Эдвард Ли
Сюжет фильма:
Для маленького мальчика Ивана Драго настольные игры - больше, чем просто увлечение. Однажды он становится победителем конкурса и узнает о том, что его дедушка Николас создал целый город Зил, который представляет из себя огромную настольную игру, полную загадок и головоломок. Мальчик отправляется в это место, где сталкивается со злым гением создания игр Мородианом. Злодей хочет уничтожить Зил. Теперь в опасности находится не только волшебный город, но и семья Ивана. Только он сможет противостоять Мородиану...

  • Мировая премьера: 3 июля 2014


Качество видео: DVDRip

Продолжительность: 01:52:40
Формат: AVI
Видео: XviD, 720x288, 23.976 fps, 1450 kbps
Аудио #1: русский, любительский одноголосый закадровый (Вячеслав Прошин), MP3 2.0, 48 kHz, 192 kbps
Аудио #2: английский, оригинал, MP3 2.0, 48 kHz, 192 kbps
Субтитры: русские (prostotak), английские внешние, SRT

Код:

Общее
Полное имя                               : The Games Maker (2014) DVDRip.avi
Формат                                   : AVI
Формат/Информация                        : Audio Video Interleave
Профиль формата                          : OpenDML
Размер файла                             : 1,46 Гбайт
Продолжительность                        : 1 ч. 52 м.
Общий поток                              : 1857 Кбит/сек
Программа кодирования                    : XviD4PSP 6.0 / 54.29.105

Видео
Идентификатор                            : 0
Формат                                   : xvid
Идентификатор кодека                     : xvid
Продолжительность                        : 1 ч. 52 м.
Битрейт                                  : 1450 Кбит/сек
Ширина                                   : 720 пикселей
Высота                                   : 288 пикселей
Соотношение сторон                       : 2,500
Частота кадров                           : 23,976 кадра/сек
Бит/(Пиксели*Кадры)                      : 0.292
Размер потока                            : 1,14 Гбайт (78%)

Аудио #1
Идентификатор                            : 1
Формат                                   : MPEG Audio
Версия формата                           : Version 1
Профиль формата                          : Layer 3
Режим                                    : Joint stereo
Идентификатор кодека                     : 55
Идентификатор кодека/Подсказка           : MP3
Продолжительность                        : 1 ч. 52 м.
Вид битрейта                             : Постоянный
Битрейт                                  : 192 Кбит/сек
Каналы                                   : 2 канала
Частота                                  : 48,0 КГц
Метод сжатия                             : С потерями
Размер потока                            : 155 Мбайт (10%)
Выравнивание                             : Соединение по промежуткам
Продолжительность промежутка             : 24  мс. (0,58 видеокадр)

Аудио #2
Идентификатор                            : 2
Формат                                   : MPEG Audio
Версия формата                           : Version 1
Профиль формата                          : Layer 3
Режим                                    : Joint stereo
Расширение режима                        : MS Stereo
Идентификатор кодека                     : 55
Идентификатор кодека/Подсказка           : MP3
Продолжительность                        : 1 ч. 52 м.
Вид битрейта                             : Постоянный
Битрейт                                  : 192 Кбит/сек
Каналы                                   : 2 канала
Частота                                  : 48,0 КГц
Метод сжатия                             : С потерями
Размер потока                            : 155 Мбайт (10%)
Выравнивание                             : Соединение по промежуткам
Продолжительность промежутка             : 24  мс. (0,58 видеокадр)
picpicpicpicpic
Для увеличения картинки щелкните мышкой по превью

Этот торрент недоступен для скачивания без регистрации, однако доступен по публичной magnet-ссылке (источники с публичных трекеров). Перед использованием ссылки прочтите, пожалуйста Пользовательское соглашение, а также как можно дольше оставайтесь на раздаче! Для того, чтобы скачать сам торрент-файл (который видит больше источников), а также для того, чтобы поблагодарить релизера, вам необходимо зарегистрироваться. Если регистрироваться лень - вы можете также попробовать скачать релиз по нашим партнерским ссылкам ниже.

[underverse.su].t59480.torrent
Трекер: Зарегистрирован   [ 29.10.2015 14:37 ]  

Статус: проверено (by makkol at 29.10.2015 15:00)
Поблагодарили: 1 человек
Тип торрента: публичный - доступные источники с открытых трекеров: 
Размер: 1,46 GB (занимает 0,33 DVDR, для записи нужно 1 болванка DVDR/RW)
 
 

Яндекс.Метрика powered by Sphinx


В Н И М А Н И Е
Сайт не распространяет и не хранит электронные версии произведений, а лишь бесплатно и без коммерческой выгоды (не требуя взамен платы,
SMS и т.д.) предоставляет доступ к создаваемому пользователями каталогу ссылок на торрент-файлы, которые содержат только списки хеш-сумм.
Убедительная просьба с жалобами обращаться напрямую к пользователю, разместившему торрент файл.

Вверх