Loading...
Error

Песнь слона / Elephant Song (Шарль Бинаме) [2014 г., драма, триллер, WEB-DLRip] AVO

Статистика раздачи
Размер:  1,46 GB   |    Зарегистрирован:  1 год 1 месяц   |    Скачан:  21 раз

Полного источника не было: 5 месяцев

Сидов:  0  |  0 KB/s  ]   Личеров:  0  |  0 KB/s  ]

* - сиды/пиры с внешних источников

   
 
Автор Сообщение

makkol Пол:Муж

29-Окт-2015 14:03

Песнь слона / Elephant Song


Год выпуска: 2014
Жанр: драма, триллер
Производство: Канада [Melenny Productions]
Режиссер: Шарль Бинаме
В ролях: Брюс Гринвуд, Ксавье Долан, Кэтрин Кинер, Кэрри-Энн Мосс, Джианна Корбисьеро, Ларри Дэй, Марк Донкер, Колм Фиор, Мелоди Годин-Кормье, Мэтт Холлэнд
Сюжет фильма:
Действие развивается в середине шестидесятых годов прошлого столетия. Врач-психиатр Тоби Грин приходит в кабинет доктора Лоуренса, который таинственным образом исчез накануне Рождества. Последним пациентом Лоуренса был Майкл Алин, и как раз с ним Грин намерен пообщаться. Но молодой человек настроен поиграть с новым собеседником: пусть доктор не читает его дело, а он через некоторое время объяснит, куда делся пропавший врач…

  • Мировая премьера: 10 сентября 2014


Качество видео: WEB-DLRip

Продолжительность: 01:39:49
Формат: AVI
Видео: XviD, 720x304 (2.35:1), 23.976 fps, 1638 kbps
Аудио: русский, авторский одноголосый закадровый (М.Чадов), AC3 5.1, 48 kHz, 448 kbps

Код:

Общее
Полное имя                               : El3ph4nt.S0ng.2014.A1.WEBDLRip.avi
Формат                                   : AVI
Формат/Информация                        : Audio Video Interleave
Размер файла                             : 1,46 Гбайт
Продолжительность                        : 1 ч. 39 м.
Общий поток                              : 2095 Кбит/сек
Программа кодирования                    : VirtualDubMod 1.5.10.3 | www.virtualdub-fr.org || (build 2550/release)
Библиотека кодирования                   : VirtualDubMod build 2550/release

Видео
Идентификатор                            : 0
Формат                                   : MPEG-4 Visual
Профиль формата                          : Advanced Simple@L5
Параметр BVOP формата                    : 2
Параметр QPel формата                    : Нет
Параметр GMC формата                     : Без точки перехода
Параметр матрицы формата                 : Default (MPEG)
Идентификатор кодека                     : XVID
Идентификатор кодека/Подсказка           : XviD
Продолжительность                        : 1 ч. 39 м.
Битрейт                                  : 1638 Кбит/сек
Ширина                                   : 720 пикселей
Высота                                   : 304 пикселя
Соотношение сторон                       : 2,35:1
Частота кадров                           : 23,976 кадра/сек
Цветовое пространство                    : YUV
Субдискретизация насыщенности            : 4:2:0
Битовая глубина                          : 8 бит
Тип развёртки                            : Прогрессивная
Метод сжатия                             : С потерями
Бит/(Пиксели*Кадры)                      : 0.312
Размер потока                            : 1,14 Гбайт (78%)
Библиотека кодирования                   : XviD 1.2.1 (UTC 2008-12-04)

Аудио
Идентификатор                            : 1
Формат                                   : AC-3
Формат/Информация                        : Audio Coding 3
Расширение режима                        : CM (complete main)
Параметр Endianness формата              : Big
Идентификатор кодека                     : 2000
Продолжительность                        : 1 ч. 39 м.
Вид битрейта                             : Постоянный
Битрейт                                  : 448 Кбит/сек
Каналы                                   : 6 каналов
Расположение каналов                     : Front: L C R, Side: L R, LFE
Частота                                  : 48,0 КГц
Метод сжатия                             : С потерями
Размер потока                            : 319 Мбайт (21%)
Выравнивание                             : Разделение по промежуткам
Продолжительность промежутка             : 42  мс. (1,00 видеокадр)
Время предзагрузки промежутка            : 500  мс.
picpicpicpicpic
Для увеличения картинки щелкните мышкой по превью

Этот торрент недоступен для скачивания без регистрации, однако доступен по публичной magnet-ссылке (источники с публичных трекеров). Перед использованием ссылки прочтите, пожалуйста Пользовательское соглашение, а также как можно дольше оставайтесь на раздаче! Для того, чтобы скачать сам торрент-файл (который видит больше источников), а также для того, чтобы поблагодарить релизера, вам необходимо зарегистрироваться. Если регистрироваться лень - вы можете также попробовать скачать релиз по нашим партнерским ссылкам ниже.

[underverse.su].t59478.torrent
Трекер: Зарегистрирован   [ 29.10.2015 14:03 ]  

Статус: проверено (by makkol at 29.10.2015 14:55)
Поблагодарили: пока никто не поблагодарил...
Тип торрента: публичный - доступные источники с открытых трекеров: 
Размер: 1,46 GB (занимает 0,33 DVDR, для записи нужно 1 болванка DVDR/RW)
 
 
Похожие темы
Форум Тема Автор Торрент Отв. Посл. сооб.
Зарубежное кино [HDDVDRip / BDRip / WEB-DL / HDTV 1080/720р] Песнь слона / Elephant Song (Шарль Бинаме) [2014 г., драма, триллер, WEB-DL 720p] AVO + Original + Subs makkol
13 | 1

1 | 656

13

06.11.2015 14:41


Яндекс.Метрика powered by Sphinx


В Н И М А Н И Е
Сайт не распространяет и не хранит электронные версии произведений, а лишь бесплатно и без коммерческой выгоды (не требуя взамен платы,
SMS и т.д.) предоставляет доступ к создаваемому пользователями каталогу ссылок на торрент-файлы, которые содержат только списки хеш-сумм.
Убедительная просьба с жалобами обращаться напрямую к пользователю, разместившему торрент файл.

Вверх