Loading...
Error

Достоинство / The Timber (Энтони О’Брайэн) [2015 г., драма, приключения, вестерн, HDRip] VO

Статистика раздачи
Размер:  1,37 GB   |    Зарегистрирован:  1 год 1 месяц   |    Скачан:  36 раз
Сидов:  1  |  0 KB/s  ]   Личеров:  0  |  0 KB/s  ]

* - сиды/пиры с внешних источников

   
 
Автор Сообщение

makkol Пол:Муж

29-Окт-2015 11:45

Достоинство / The Timber


Год выпуска: 2015
Жанр: драма, приключения, вестерн
Производство: США [ANA Media]
Режиссер: Энтони О’Брайэн
В ролях: Джеймс Рэнсон, Элиза Ласовски, Марк Кавен, Уильям Гонт, Дэвид Бэйли, Аттила Арпа, Шон О’Хаган, Мариус Флориан, Разван Георгиу, Мария Дойл Кеннеди
Сюжет фильма:
Год 1889. В ледяной Аляске, во время золотой лихорадки, братья Самуэль (Джош Пек) и Уайетт (Джеймс Рансон) отправляются в опасное путешествие. Для того, чтобы сохранить честь дома, они должны найти своего тираничного отца, который много лет назад их оставил. Впереди у них куча неприятностей с жестокими бандитами. Мрачные сцены и сырой климат меркнут перед алчностью, жаждой власти и смерти, с которыми они сталкиваются.

  • Мировая премьера: 27 февраля 2015


Перевод: Куценко
Озвучивание: datynet

Качество видео: HDRip

Продолжительность: 01:20:20
Формат: AVI
Видео: XviD, 720x304 (2.35:1), 1979 kbps
Аудио: русский, любительский одноголосый закадровый, AC3 5.1, 448 kbps

Код:

Общее
Полное имя                               : Dostynsvo.2015.L1.HDRip.avi
Формат                                   : AVI
Формат/Информация                        : Audio Video Interleave
Размер файла                             : 1,37 Гбайт
Продолжительность                        : 1 ч. 20 м.
Общий поток                              : 2436 Кбит/сек
Программа кодирования                    : VirtualDubMod 1.5.10.2 (build 2540/release)
Библиотека кодирования                   : VirtualDubMod build 2540/release

Видео
Идентификатор                            : 0
Формат                                   : MPEG-4 Visual
Профиль формата                          : Advanced Simple@L5
Параметр BVOP формата                    : 2
Параметр QPel формата                    : Нет
Параметр GMC формата                     : Без точки перехода
Параметр матрицы формата                 : Default (MPEG)
Идентификатор кодека                     : XVID
Идентификатор кодека/Подсказка           : XviD
Продолжительность                        : 1 ч. 20 м.
Битрейт                                  : 1979 Кбит/сек
Ширина                                   : 720 пикселей
Высота                                   : 304 пикселя
Соотношение сторон                       : 2,35:1
Частота кадров                           : 23,976 кадра/сек
Цветовое пространство                    : YUV
Субдискретизация насыщенности            : 4:2:0
Битовая глубина                          : 8 бит
Тип развёртки                            : Прогрессивная
Метод сжатия                             : С потерями
Бит/(Пиксели*Кадры)                      : 0.377
Размер потока                            : 1,11 Гбайт (81%)
Библиотека кодирования                   : XviD 1.2.1 (UTC 2008-12-04)

Аудио
Идентификатор                            : 1
Формат                                   : AC-3
Формат/Информация                        : Audio Coding 3
Расширение режима                        : CM (complete main)
Параметр Endianness формата              : Big
Идентификатор кодека                     : 2000
Продолжительность                        : 1 ч. 20 м.
Вид битрейта                             : Постоянный
Битрейт                                  : 448 Кбит/сек
Каналы                                   : 6 каналов
Расположение каналов                     : Front: L C R, Side: L R, LFE
Частота                                  : 48,0 КГц
Метод сжатия                             : С потерями
Размер потока                            : 257 Мбайт (18%)
Выравнивание                             : Разделение по промежуткам
Продолжительность промежутка             : 42  мс. (1,00 видеокадр)
Время предзагрузки промежутка            : 500  мс.
picpicpicpicpic
Для увеличения картинки щелкните мышкой по превью

Этот торрент недоступен для скачивания без регистрации, однако доступен по публичной magnet-ссылке (источники с публичных трекеров). Перед использованием ссылки прочтите, пожалуйста Пользовательское соглашение, а также как можно дольше оставайтесь на раздаче! Для того, чтобы скачать сам торрент-файл (который видит больше источников), а также для того, чтобы поблагодарить релизера, вам необходимо зарегистрироваться. Если регистрироваться лень - вы можете также попробовать скачать релиз по нашим партнерским ссылкам ниже.

[underverse.su].t59474.torrent
Трекер: Зарегистрирован   [ 29.10.2015 11:45 ]  

Статус: проверено (by makkol at 29.10.2015 14:52)
Поблагодарили: 1 человек
Тип торрента: публичный - доступные источники с открытых трекеров: 
Размер: 1,37 GB (занимает 0,31 DVDR, для записи нужно 1 болванка DVDR/RW)
 
 
Похожие темы
Форум Тема Автор Торрент Отв. Посл. сооб.
T Зарубежное кино [DVDRip, Low-Res HDRip, и т.д.] Достоинство / The Timber (Энтони О’Брайэн) [2015 г., драма, приключения, вестерн, HDRip] MVO (официальный звук) makkol
37 | 3

0 | 297

11

28.10.2016 21:47

Зарубежное кино [DVDRip, Low-Res HDRip, и т.д.] Достоинство / The Timber (Энтони О’Брайэн) [2015 г., драма, приключения, вестерн, HDRip] MVO makkol
37 | 2

0 | 283

8

31.07.2016 11:09

T Зарубежное кино [HDDVDRip / BDRip / WEB-DL / HDTV 1080/720р] Достоинство / The Timber (Энтони О Брайэн / Anthony O'Brien) [2016 г., драма, приключения, вестерн, BDRip 720p] MVO (официальный звук) 90ytr90
21 | 0

0 | 466

11

29.10.2016 10:22

T Зарубежное кино [HDDVDRip / BDRip / WEB-DL / HDTV 1080/720р] Достоинство / The Timber (Энтони О’Брайэн) [2015 г., драма, приключения, вестерн, BDRip 1080p] MVO (официальный звук) makkol
40 | 3

0 | 266

5

28.10.2016 21:54


Яндекс.Метрика powered by Sphinx


В Н И М А Н И Е
Сайт не распространяет и не хранит электронные версии произведений, а лишь бесплатно и без коммерческой выгоды (не требуя взамен платы,
SMS и т.д.) предоставляет доступ к создаваемому пользователями каталогу ссылок на торрент-файлы, которые содержат только списки хеш-сумм.
Убедительная просьба с жалобами обращаться напрямую к пользователю, разместившему торрент файл.

Вверх