Loading...
Error

Легендарный автомобиль / Legendary Motorcar [2014 г., документальный, техника, HDTVRip] VO

Статистика раздачи
Размер:  3,33 GB   |    Зарегистрирован:  1 год 1 месяц   |    Скачан:  8 раз

Полного источника не было: 7 месяцев

Сидов:  0  |  0 KB/s  ]   Личеров:  0  |  0 KB/s  ]

* - сиды/пиры с внешних источников

   
 
Автор Сообщение

ARI71 Пол:Муж

26-Окт-2015 18:51

Легендарный автомобиль / Legendary Motorcar


Год выпуска: 2014
Жанр: документальный, техника
Страна: США
Производство: Discovery Channel
Сюжет фильма:
Питер покупает старые легендарные автомобили, чтобы их потом отремонтировать и продать...
Качество видео: HDTVRip

Продолжительность: 13 x ~ 00:22:00
Формат: AVI
Видео: XviD, 720x400, 1519 kbps
Аудио: русский, одноголосый [профессиональный], AC3 2.0, 192 kbps
1. Packard из сарая
Питер узнает о Packard 1937 года, ржавеющем в гараже в паре часов езды от мастерской. Если хозяин согласится, это может стать отличным приобретением.

2. Конкурс Shelby на трассе Уоткинс-Глен
Лучший клиент Питера пригоняет Boss 429 для участия в конкурсе Американского клуба владельцев Shelby.

3. Aston Martin из Оклахомы
Питер узнает про очень редкий гоночный Aston Martin в Оклахоме. Он сразу же летит туда, но на месте выясняется, что с этим автомобилем не все так просто.

4. По-взрослому
Давний клиент приходит к Питу, чтобы предложить ему новую сделку. Но речь не о простом ремонте.

5. T-Bird 1956 с доплатой
Питер находит потенциального покупателя для T-bird. Все идет по плану, пока клиент не начинает выторговывать дополнительные опции.

6. Корветы на благотворительные цели и слепой механик
Крупная благотворительная организация обращается в "Легендарный автомобиль". Они ищут две машины для корпоративного мероприятия, и Пит пригоняет им потрясающий корвет.

7.Полный круг для Boss 302
Пит с коллегами восстанавливает Boss 302 1970 года. Машина просто потрясающая, но настоящий сюрприз кроется в уникальной истории этого автомобиля.

8.Гонка не для дураков
Питер с парнями решают собрать гоночную машину для участия в главной гонке на выносливость среди самых отстойных автомобилей Америки.

9. Как продать Cadillac
Питер собирается продать Cadillac 55-го года на автомобильном аукционе в Гринсборо. Он еще ни разу не продавал там машины. Ждет ли его успех?

10. Автомобиль Джессики
Питеру предлагают купить автомобиль Healey. Он не слишком воодушевлен предложением, но знакомство с владелицей и ее коллекцией заставит его в корне изменить свое мнение.

11. Выгодные сделки и чистые полы
Гэри звонят по поводу пикапа Dodge 1940-го года. Поможет ли ему это предложение заключить другую, более выгодную сделку?

12. На помощь брату
Брат Пита обращается за помощью в покупке спортивного автомобиля. Он не может сделать выбор между Corvette и Viper, поэтому Пит предлагает испытать обе машины.

13. Воскрешение легенды
Заказчику нужна копия легендарного автомобиля Mustang GT 68-го года. Теперь осталось лишь найти запчасти и договориться о приемлемых сроках.

Код:

Общее
Полное имя : D:\Легендарный автомобиль GeneralFilm\01 Легендарный автомобиль GeneralFilm.avi
Формат : AVI
Формат/Информация : Audio Video Interleave
Размер файла : 256 Мбайт
Продолжительность : 20 м.
Общий поток : 1723 Кбит/сек
Программа кодирования : VirtualDubMod 1.5.10.3 | www.virtualdub-fr.org || (build 2550/release)
Библиотека кодирования : VirtualDubMod build 2550/release

Видео
Идентификатор : 0
Формат : MPEG-4 Visual
Профиль формата : Advanced Simple@L5
Параметр BVOP формата : 1
Параметр QPel формата : Нет
Параметр GMC формата : Без точки перехода
Параметр матрицы формата : Default (MPEG)
Идентификатор кодека : XVID
Идентификатор кодека/Подсказка : XviD
Продолжительность : 20 м.
Битрейт : 1519 Кбит/сек
Ширина : 720 пикселей
Высота : 400 пикселей
Соотношение сторон : 16:9
Частота кадров : 30,000 кадров/сек
Цветовое пространство : YUV
Субдискретизация насыщенности : 4:2:0
Битовая глубина : 8 бит
Тип развёртки : Прогрессивная
Метод сжатия : С потерями
Бит/(Пиксели*Кадры) : 0.176
Размер потока : 226 Мбайт (88%)
Библиотека кодирования : XviD 1.2.1 (UTC 2008-12-04)

Аудио
Идентификатор : 1
Формат : AC-3
Формат/Информация : Audio Coding 3
Расширение режима : CM (complete main)
Параметр Endianness формата : Big
Идентификатор кодека : 2000
Продолжительность : 20 м.
Вид битрейта : Постоянный
Битрейт : 192 Кбит/сек
Каналы : 2 канала
Расположение каналов : Front: L R
Частота : 48,0 КГц
Метод сжатия : С потерями
Размер потока : 28,5 Мбайт (11%)
Выравнивание : Разделение по промежуткам
Продолжительность промежутка : 33 мс. (1,00 видеокадр)
Время предзагрузки промежутка : 500 мс.










Этот торрент недоступен для скачивания без регистрации, однако доступен по публичной magnet-ссылке (источники с публичных трекеров). Перед использованием ссылки прочтите, пожалуйста Пользовательское соглашение, а также как можно дольше оставайтесь на раздаче! Для того, чтобы скачать сам торрент-файл (который видит больше источников), а также для того, чтобы поблагодарить релизера, вам необходимо зарегистрироваться. Если регистрироваться лень - вы можете также попробовать скачать релиз по нашим партнерским ссылкам ниже.

[underverse.su].t59380.torrent
Трекер: Зарегистрирован   [ 26.10.2015 18:51 ]  

Статус: проверено (by makkol at 26.10.2015 22:22)
Поблагодарили: пока никто не поблагодарил...
Тип торрента: публичный - доступные источники с открытых трекеров: 
Размер: 3,33 GB (занимает 0,76 DVDR, для записи нужно 1 болванка DVDR/RW)
 
 
Похожие темы
Форум Тема Автор Торрент Отв. Посл. сооб.
Зарубежное кино [DVDRip, Low-Res HDRip, и т.д.] Легендарный / Legendary (Мэл Дэмски) [2010 г., драма, спорт, HDRip] deny-BOY
0 | 1

0 | 580

11

26.04.2012 21:21

Зарубежное кино [DVDRip, Low-Res HDRip, и т.д.] Легендарные амазонки / Legendary Amazons (Фрэнки Чан) [2011 г., военный, HDRip] RG NewCinema
0 | 0

0 | 736

14

19.08.2012 12:12

Гуманитарные науки, история, публицистика Легендарные полководцы древности [2014 г., история, PDF] RUS Паукан
0 | 0

0 | 523

10

08.12.2014 16:48

ARI71 Пол:Муж

26-Окт-2015 19:01


Яндекс.Метрика powered by Sphinx


В Н И М А Н И Е
Сайт не распространяет и не хранит электронные версии произведений, а лишь бесплатно и без коммерческой выгоды (не требуя взамен платы,
SMS и т.д.) предоставляет доступ к создаваемому пользователями каталогу ссылок на торрент-файлы, которые содержат только списки хеш-сумм.
Убедительная просьба с жалобами обращаться напрямую к пользователю, разместившему торрент файл.

Вверх