Loading...
Error

Прогулки по Земле / J'ai marche sur la Terre [2012 г., документальный, путешествия, дайвинг, флора, фауна, SatRip] VO

Статистика раздачи
Размер:  5,13 GB   |    Зарегистрирован:  1 год 1 месяц   |    Скачан:  5 раз

Полного источника не было: 1 месяц 22 дня

Сидов:  0  |  0 KB/s  ]   Личеров:  0  |  0 KB/s  ]

* - сиды/пиры с внешних источников

   
 
Автор Сообщение

ARI71 Пол:Муж

26-Окт-2015 16:43

Прогулки по Земле / J'ai marche sur la Terre


Год выпуска: 2012
Жанр: документальный, путешествия, дайвинг, флора, фауна
Страна: Франция
Режиссер: Матье Видар, Пьер Беле, Фабрис Риво, Фабрис Пуше
В ролях: Матье Видар
Сюжет фильма:
Матье Видар - ведущий передач на радио "France Enter". Обычно он приглашает исследователей в студию, но в этот раз решил пережить приключения вместе с ними. В путешествиях по странам мира Матье изучает поведение и повадки животных, знакомится с местными жителями, их обычаями и образом жизни.
Качество видео: SatRip

Продолжительность: 8 х ~ 00:50:00
Формат: AVI
Видео: XviD, 704x400, 1553 kbps
Аудио: русский, одноголосый [профессиональный], AC3 2.0, 192 kbps - SDI Media
(тех. данные всех серий идентичны)
1. В Новой Каледонии
Новая Каледония - райский архипелаг, где пытаются сосуществовать люди и животные. Порой бывает не просто, но эти сюрпризы и приключения стоят того, чтобы попасть сюда.

2. В Габоне
Приключения с дикими животными. Иногда это может быть опасно, но игра стоит свеч. Экваториальный лес покрывает 80% территории Габона. Это потрясающее поле деятельности для ученых со всего мира, но ещё и опасная игра, поскольку роскошный пейзаж скрывает настоящие "бомбы", способные уничтожить человечество - вирусы ВИЧ и эбола.

3. В Индонезии
Извержения, землетрясения и цунами случаются здесь чаще, чем где либо, и жизнь должна была бы приспособиться к гневу природы. Встреча с бойцами науки, которые без колебания ринулись на эту землю, чтобы открыть её секреты. Если правильно их понять, природа может стать нашим лучшим другом.

4. В Перу
Ступив на землю Перу, словно попадаешь в книгу джунглей. Знакомство с настоящими воинами науки, которые пытаются раскрыть увлекательные тайны природы.

5. В Уганде
Сабрина Криеф - приматолог. Уже более 10 лет она живет в Уганде и наблюдает на нашими ближайшими родственниками - шимпанзе. Она заметила, что шимпанзе могут находить растения, чтобы укрепить своё здоровье или вылечиться. Цель этих исследований - найти лекарство, чтобы лечить заболевания людей от самых страшных болезней.

6. В Чили
Матье отправляется в горы Чили, где он знакомится со специалистами по ледникам, и где индейские целители Калавайа предлагают ему отведать загадочное зелье от высотной болезни.

7. Во Флориде
Флорида - земля, где сосуществуют человек и дикая природа. В этой части США ученые интересуются местными видами, а так же теми, кто вторгается в хрупкие экосистемы, подвергая их опасности. Встреча с учеными, которые посвящают своё время и энергию наблюдению за потрясающими животными среди влажной жары болот и в бирюзовых водах озёр.

8. В Зимбабве
Это сердце Южной Африки. В этой стране французские ученые изучают сложные отношения между растущей популяцией слонов с другими травоядными и хищниками, львами и гиенами.

Код:

Общее
Полное имя : D:\Прогулки по Земле.2010-2013.SATRip\Прогулки по Земле.01.Новая Каледония.2010.SATRip.avi
Формат : AVI
Формат/Информация : Audio Video Interleave
Размер файла : 617 Мбайт
Продолжительность : 49 м.
Общий поток : 1755 Кбит/сек
Программа кодирования : VirtualDubMod 1.5.10.3 | www.virtualdub-fr.org || (build 2550/release)
Библиотека кодирования : VirtualDubMod build 2550/release

Видео
Идентификатор : 0
Формат : MPEG-4 Visual
Профиль формата : Advanced Simple@L5
Параметр BVOP формата : 2
Параметр QPel формата : Нет
Параметр GMC формата : Без точки перехода
Параметр матрицы формата : Выборочная
Идентификатор кодека : XVID
Идентификатор кодека/Подсказка : XviD
Продолжительность : 49 м.
Битрейт : 1554 Кбит/сек
Ширина : 704 пикселя
Высота : 400 пикселей
Соотношение сторон : 16:9
Частота кадров : 25,000 кадров/сек
Цветовое пространство : YUV
Субдискретизация насыщенности : 4:2:0
Битовая глубина : 8 бит
Тип развёртки : Прогрессивная
Метод сжатия : С потерями
Бит/(Пиксели*Кадры) : 0.221
Размер потока : 546 Мбайт (89%)
Библиотека кодирования : XviD 73

Аудио
Идентификатор : 1
Формат : AC-3
Формат/Информация : Audio Coding 3
Расширение режима : CM (complete main)
Параметр Endianness формата : Big
Идентификатор кодека : 2000
Продолжительность : 49 м.
Вид битрейта : Постоянный
Битрейт : 192 Кбит/сек
Каналы : 2 канала
Расположение каналов : Front: L R
Частота : 48,0 КГц
Метод сжатия : С потерями
Размер потока : 67,5 Мбайт (11%)
Выравнивание : Разделение по промежуткам
Продолжительность промежутка : 40 мс. (1,00 видеокадр)
Время предзагрузки промежутка : 500 мс.










Этот торрент недоступен для скачивания без регистрации, однако доступен по публичной magnet-ссылке (источники с публичных трекеров). Перед использованием ссылки прочтите, пожалуйста Пользовательское соглашение, а также как можно дольше оставайтесь на раздаче! Для того, чтобы скачать сам торрент-файл (который видит больше источников), а также для того, чтобы поблагодарить релизера, вам необходимо зарегистрироваться. Если регистрироваться лень - вы можете также попробовать скачать релиз по нашим партнерским ссылкам ниже.

[underverse.su].t59377.torrent
Трекер: Зарегистрирован   [ 26.10.2015 16:43 ]  

Статус: проверено (by makkol at 26.10.2015 22:17)
Поблагодарили: пока никто не поблагодарил...
Тип торрента: публичный - доступные источники с открытых трекеров: 
Размер: 5,13 GB (занимает 1,17 DVDR, для записи нужно 2 болванки DVDR/RW)
 
 

ARI71 Пол:Муж

26-Окт-2015 17:03

Всем приятного просмотра!

Яндекс.Метрика powered by Sphinx


В Н И М А Н И Е
Сайт не распространяет и не хранит электронные версии произведений, а лишь бесплатно и без коммерческой выгоды (не требуя взамен платы,
SMS и т.д.) предоставляет доступ к создаваемому пользователями каталогу ссылок на торрент-файлы, которые содержат только списки хеш-сумм.
Убедительная просьба с жалобами обращаться напрямую к пользователю, разместившему торрент файл.

Вверх