Loading...
Error

Медвежьи истории / Beary Tales [2014 г., документальный, флора, фауна, SatRip] VO

Статистика раздачи
Размер:  632 MB   |    Зарегистрирован:  1 год 1 месяц   |    Скачан:  5 раз

Полного источника не было: 1 месяц 13 дней

Сидов:  0  |  0 KB/s  ]   Личеров:  0  |  0 KB/s  ]

* - сиды/пиры с внешних источников

   
 
Автор Сообщение

ARI71 Пол:Муж

26-Окт-2015 08:35

Медвежьи истории / Beary Tales


Год выпуска: 2014
Жанр: документальный, флора, фауна
Страна: Германия
Режиссер: Ангелика Зигль
Сюжет фильма:
Эта история произошла в лесах у подножья Карпатских гор. История двух медвежат, потерявших мать, похожая на сказку. Одним в лесу им не выжить. Но произошло чудо: осиротевших медвежат нашли. Человек, спасший близнецов от голодной смерти, постарается сделать их жизнь комфортной и безопасной. Но возможно ли это? Станут ли дикие бурые медведи послушными питомцами, живя в глухом лесу?
Качество видео: SatRip

Продолжительность: 00:51:37
Формат: AVI
Видео: XviD, 720x400, 1508 kbps
Аудио: русский, одноголосый закадровый [профессиональный], AC3 2.0, 192 kbps

Код:

Общее
Полное имя : D:\Medveg'i.istorii.2014.SATRip.avi
Формат : AVI
Формат/Информация : Audio Video Interleave
Размер файла : 632 Мбайт
Продолжительность : 51 м.
Общий поток : 1710 Кбит/сек
Программа кодирования : VirtualDubMod 1.5.10.3 | www.virtualdub-fr.org || (build 2550/release)
Библиотека кодирования : VirtualDubMod build 2550/release

Видео
Идентификатор : 0
Формат : MPEG-4 Visual
Профиль формата : Advanced Simple@L5
Параметр BVOP формата : 1
Параметр QPel формата : Нет
Параметр GMC формата : Без точки перехода
Параметр матрицы формата : Выборочная
Идентификатор кодека : XVID
Идентификатор кодека/Подсказка : XviD
Продолжительность : 51 м.
Битрейт : 1509 Кбит/сек
Ширина : 720 пикселей
Высота : 400 пикселей
Соотношение сторон : 16:9
Частота кадров : 25,000 кадров/сек
Цветовое пространство : YUV
Субдискретизация насыщенности : 4:2:0
Битовая глубина : 8 бит
Тип развёртки : Прогрессивная
Метод сжатия : С потерями
Бит/(Пиксели*Кадры) : 0.210
Размер потока : 557 Мбайт (88%)
Библиотека кодирования : XviD 73

Аудио
Идентификатор : 1
Формат : AC-3
Формат/Информация : Audio Coding 3
Расширение режима : CM (complete main)
Параметр Endianness формата : Big
Идентификатор кодека : 2000
Продолжительность : 51 м.
Вид битрейта : Постоянный
Битрейт : 192 Кбит/сек
Каналы : 2 канала
Расположение каналов : Front: L R
Частота : 48,0 КГц
Метод сжатия : С потерями
Размер потока : 70,9 Мбайт (11%)
Выравнивание : Разделение по промежуткам
Продолжительность промежутка : 40 мс. (1,00 видеокадр)
Время предзагрузки промежутка : 500 мс.










Этот торрент недоступен для скачивания без регистрации, однако доступен по публичной magnet-ссылке (источники с публичных трекеров). Перед использованием ссылки прочтите, пожалуйста Пользовательское соглашение, а также как можно дольше оставайтесь на раздаче! Для того, чтобы скачать сам торрент-файл (который видит больше источников), а также для того, чтобы поблагодарить релизера, вам необходимо зарегистрироваться. Если регистрироваться лень - вы можете также попробовать скачать релиз по нашим партнерским ссылкам ниже.

[underverse.su].t59368.torrent
Трекер: Зарегистрирован   [ 26.10.2015 08:35 ]  

Статус: проверено (by makkol at 26.10.2015 10:34)
Поблагодарили: пока никто не поблагодарил...
Тип торрента: публичный - доступные источники с открытых трекеров: 
Размер: 632 MB (занимает 0,14 DVDR, для записи нужно 1 болванка DVDR/RW)
 
 

ARI71 Пол:Муж

26-Окт-2015 08:55

Всем приятного просмотра!

Яндекс.Метрика powered by Sphinx


В Н И М А Н И Е
Сайт не распространяет и не хранит электронные версии произведений, а лишь бесплатно и без коммерческой выгоды (не требуя взамен платы,
SMS и т.д.) предоставляет доступ к создаваемому пользователями каталогу ссылок на торрент-файлы, которые содержат только списки хеш-сумм.
Убедительная просьба с жалобами обращаться напрямую к пользователю, разместившему торрент файл.

Вверх