Loading...
Error

24 часа на Земле / 24 Hours on Earth [2013 г., документальный, флора, фауна, SatRip] Dub

Статистика раздачи
Размер:  999 MB   |    Зарегистрирован:  1 год 1 месяц   |    Скачан:  9 раз

Полного источника не было: 7 месяцев

Сидов:  0  |  0 KB/s  ]   Личеров:  0  |  0 KB/s  ]

* - сиды/пиры с внешних источников

   
 
Автор Сообщение

ARI71 Пол:Муж

25-Окт-2015 15:50

24 часа на Земле / 24 Hours on Earth


Год выпуска: 2013
Жанр: документальный, флора, фауна
Страна: Великобритания
Режиссер: Джеймс Хонейборн
Сюжет фильма:
Солнце - творец ежедневной жизненной гармонии на Земле, участник всех событий, происходящих на планете. Его расположение судьбоностно в любой момент и в любой точке. Оно открывает невероятные возможности для одних и несет гибель другим. Прохождение Солнца по небосводу регулирует жизнь животных на всей планете. От их ответного поведения зависит дальнейшая судьба, победы и поражения, жизнь и смерть. Это обычный день на нашей необычной планете.
Качество видео: SatRip

Продолжительность: 2 х ~ 00:49:00
Формат: AVI
Видео: XviD, 720x400, 1234 kbps
Аудио: русский, дублированный, AC3 2.0, 192 kbps - компания Видеофильм ТВ

Код:

Общее
Полное имя : D:\24.chasa.na.Zemle.2013.SATRip\01.avi
Формат : AVI
Формат/Информация : Audio Video Interleave
Размер файла : 498 Мбайт
Продолжительность : 48 м.
Общий поток : 1437 Кбит/сек
Программа кодирования : VirtualDubMod 1.5.10.3 | www.virtualdub-fr.org || (build 2550/release)
Библиотека кодирования : VirtualDubMod build 2550/release

Видео
Идентификатор : 0
Формат : MPEG-4 Visual
Профиль формата : Advanced Simple@L5
Параметр BVOP формата : 1
Параметр QPel формата : Нет
Параметр GMC формата : Без точки перехода
Параметр матрицы формата : Выборочная
Идентификатор кодека : XVID
Идентификатор кодека/Подсказка : XviD
Продолжительность : 48 м.
Битрейт : 1235 Кбит/сек
Ширина : 720 пикселей
Высота : 400 пикселей
Соотношение сторон : 16:9
Частота кадров : 25,000 кадров/сек
Цветовое пространство : YUV
Субдискретизация насыщенности : 4:2:0
Битовая глубина : 8 бит
Тип развёртки : Прогрессивная
Метод сжатия : С потерями
Бит/(Пиксели*Кадры) : 0.172
Размер потока : 428 Мбайт (86%)
Библиотека кодирования : XviD 73

Аудио
Идентификатор : 1
Формат : AC-3
Формат/Информация : Audio Coding 3
Расширение режима : CM (complete main)
Параметр Endianness формата : Big
Идентификатор кодека : 2000
Продолжительность : 48 м.
Вид битрейта : Постоянный
Битрейт : 192 Кбит/сек
Каналы : 2 канала
Расположение каналов : Front: L R
Частота : 48,0 КГц
Метод сжатия : С потерями
Размер потока : 66,6 Мбайт (13%)
Выравнивание : Разделение по промежуткам
Продолжительность промежутка : 40 мс. (1,00 видеокадр)
Время предзагрузки промежутка : 500 мс.










Этот торрент недоступен для скачивания без регистрации, однако доступен по публичной magnet-ссылке (источники с публичных трекеров). Перед использованием ссылки прочтите, пожалуйста Пользовательское соглашение, а также как можно дольше оставайтесь на раздаче! Для того, чтобы скачать сам торрент-файл (который видит больше источников), а также для того, чтобы поблагодарить релизера, вам необходимо зарегистрироваться. Если регистрироваться лень - вы можете также попробовать скачать релиз по нашим партнерским ссылкам ниже.

[underverse.su].t59351.torrent
Трекер: Зарегистрирован   [ 25.10.2015 15:50 ]  

Статус: проверено (by makkol at 25.10.2015 22:12)
Поблагодарили: пока никто не поблагодарил...
Тип торрента: публичный - доступные источники с открытых трекеров: 
Размер: 999 MB (занимает 0,22 DVDR, для записи нужно 1 болванка DVDR/RW)
 
 

ARI71 Пол:Муж

26-Окт-2015 07:47

Приятного просмотра!

Яндекс.Метрика powered by Sphinx


В Н И М А Н И Е
Сайт не распространяет и не хранит электронные версии произведений, а лишь бесплатно и без коммерческой выгоды (не требуя взамен платы,
SMS и т.д.) предоставляет доступ к создаваемому пользователями каталогу ссылок на торрент-файлы, которые содержат только списки хеш-сумм.
Убедительная просьба с жалобами обращаться напрямую к пользователю, разместившему торрент файл.

Вверх