Loading...
Error

Гиганты Арктики / Battle of the Arctic Giants [2004 г., документальный, фауна, DVDRip] VO

Статистика раздачи
Размер:  499 MB   |    Зарегистрирован:  1 год 1 месяц   |    Скачан:  5 раз

Полного источника не было: 2 месяца 11 дней

Сидов:  0  |  0 KB/s  ]   Личеров:  0  |  0 KB/s  ]

* - сиды/пиры с внешних источников

   
 
Автор Сообщение

ARI71 Пол:Муж

24-Окт-2015 20:44

Гиганты Арктики / Battle of the Arctic Giants


Год выпуска: 2004
Жанр: документальный, фауна
Страна: США
Режиссер: Адам Ревич, Сара Робертсон
Сюжет фильма:
В Арктике наступила весна, у атлантических моржей скоро появится на свет долгожданное потомство. И пока эти удивительные животные властвуют в ледяных водах, другое могучее существо также заявляет о своих правах на эти белоснежные просторы. Белый медведь - проворный и скрытный хищник - не остановится ни перед чем, чтобы утолить свой голод. Даже если ради этого ему придется рискнуть своей жизнью, противостоя мощным клыкам моржа!.. Национальное Географическое Общество предоставляет Вам уникальный шанс увидеть, что происходит, когда эти бесстрашные властители полярных льдов сталкиваются в жестокой схватке…
Качество видео: DVDRip

Продолжительность: 00:52:52
Формат: AVI
Видео: XviD, 720x448, 1117 kbps
Аудио: русский, одноголосый закадровый [профессиональный], AC3 2.0, 192 kbps

Код:

Общее
Полное имя : D:\Giganty.Arktiki.2004.DVDRip.avi
Формат : AVI
Формат/Информация : Audio Video Interleave
Размер файла : 499 Мбайт
Продолжительность : 52 м.
Общий поток : 1319 Кбит/сек
Программа кодирования : VirtualDubMod 1.5.10.3 | www.virtualdub-fr.org || (build 2550/release)
Библиотека кодирования : VirtualDubMod build 2550/release

Видео
Идентификатор : 0
Формат : MPEG-4 Visual
Профиль формата : Advanced Simple@L5
Параметр BVOP формата : 1
Параметр QPel формата : Нет
Параметр GMC формата : Без точки перехода
Параметр матрицы формата : Default (MPEG)
Идентификатор кодека : XVID
Идентификатор кодека/Подсказка : XviD
Продолжительность : 52 м.
Битрейт : 1117 Кбит/сек
Ширина : 720 пикселей
Высота : 448 пикселей
Соотношение сторон : 16:10
Частота кадров : 25,000 кадров/сек
Цветовое пространство : YUV
Субдискретизация насыщенности : 4:2:0
Битовая глубина : 8 бит
Тип развёртки : Прогрессивная
Метод сжатия : С потерями
Бит/(Пиксели*Кадры) : 0.139
Размер потока : 422 Мбайт (85%)
Библиотека кодирования : XviD 73

Аудио
Идентификатор : 1
Формат : AC-3
Формат/Информация : Audio Coding 3
Расширение режима : CM (complete main)
Параметр Endianness формата : Big
Идентификатор кодека : 2000
Продолжительность : 52 м.
Вид битрейта : Постоянный
Битрейт : 192 Кбит/сек
Каналы : 2 канала
Расположение каналов : Front: L R
Частота : 48,0 КГц
Метод сжатия : С потерями
Размер потока : 72,6 Мбайт (15%)
Выравнивание : Разделение по промежуткам
Продолжительность промежутка : 40 мс. (1,00 видеокадр)
Время предзагрузки промежутка : 500 мс.










Этот торрент недоступен для скачивания без регистрации, однако доступен по публичной magnet-ссылке (источники с публичных трекеров). Перед использованием ссылки прочтите, пожалуйста Пользовательское соглашение, а также как можно дольше оставайтесь на раздаче! Для того, чтобы скачать сам торрент-файл (который видит больше источников), а также для того, чтобы поблагодарить релизера, вам необходимо зарегистрироваться. Если регистрироваться лень - вы можете также попробовать скачать релиз по нашим партнерским ссылкам ниже.

[underverse.su].t59341.torrent
Трекер: Зарегистрирован   [ 24.10.2015 20:44 ]  

Статус: проверено (by makkol at 24.10.2015 22:01)
Поблагодарили: 2 человека
Тип торрента: публичный - доступные источники с открытых трекеров: 
Размер: 499 MB (занимает 0,11 DVDR, для записи нужно 1 болванка DVDR/RW)
 
 


Последний раз редактировалось: ARI71 (24.10.2015 20:56), всего редактировалось 1 раз

ARI71 Пол:Муж

24-Окт-2015 20:51

Приятного всем просмотра!

Яндекс.Метрика powered by Sphinx


В Н И М А Н И Е
Сайт не распространяет и не хранит электронные версии произведений, а лишь бесплатно и без коммерческой выгоды (не требуя взамен платы,
SMS и т.д.) предоставляет доступ к создаваемому пользователями каталогу ссылок на торрент-файлы, которые содержат только списки хеш-сумм.
Убедительная просьба с жалобами обращаться напрямую к пользователю, разместившему торрент файл.

Вверх