Loading...
Error

Жизнь колибри. Волшебство в воздухе / Hummingbirds. Magic in the air [2009 г., документальный, фауна, HDTVRip 720p] Dub + Original

Статистика раздачи
Размер:  1,53 GB   |    Зарегистрирован:  1 год 1 месяц   |    Скачан:  11 раз

Полного источника не было: 2 месяца 13 дней

Сидов:  0  |  0 KB/s  ]   Личеров:  0  |  0 KB/s  ]

* - сиды/пиры с внешних источников

   
 
Автор Сообщение

ARI71 Пол:Муж

24-Окт-2015 12:10

Жизнь колибри. Волшебство в воздухе / Hummingbirds. Magic in the air


Год выпуска: 2009
Жанр: документальный, фауна
Страна: США
Режиссер: Джейми Бернанк
Сюжет фильма:
Колибри вызывают интерес, очаровывают и просто покоряют. Но редко удается увидеть их более чем краем глаза. Эти маленькие, но стойкие птички - истинные самоцветы природы.
Теперь у нас появилась возможность замедлить их и подойти ближе. Исследуя их вселенную мы на каждом шагу обнаруживаем что то новое. Потрясающий документальный фильм рассказывает об их удивительных способностях.
Качество видео: HDTVRip 720p

Продолжительность: 00:52:58
Формат: MKV
Видео: MPEG-4 AVC x264, 1280x720, 3554 kbps
Аудио #1: английский, оригинал, AC3 5.1, 384 kbps
Аудио #2: русский, дублированный (АРК-ТВ Петр Тобелевич), AC3 2.0, 192 kbps

Код:

Общее
Уникальный идентификатор : 209431072439749910393202747453410786353 (0x9D8EF5162DFDD7D1AD72045F4DEE3C31)
Полное имя : D:\05.Hummingbirds.Magic.in.the.Air.720p.x264.mkv
Формат : Matroska
Версия формата : Version 2
Размер файла : 1,53 Гбайт
Продолжительность : 52 м.
Общий поток : 4132 Кбит/сек
Дата кодирования : UTC 2011-02-09 19:43:05
Программа кодирования : mkvmerge v4.4.0 ('Die Wiederkehr') сборка от Dec 25 2010 23:32:50
Библиотека кодирования : libebml v1.0.0 + libmatroska v1.0.0

Видео
Идентификатор : 2
Формат : AVC
Формат/Информация : Advanced Video Codec
Профиль формата : High@L3.1
Параметр CABAC формата : Да
Параметр ReFrames формата : 5 кадров
Режим смешивания : Header stripping
Идентификатор кодека : V_MPEG4/ISO/AVC
Продолжительность : 52 м.
Битрейт : 3554 Кбит/сек
Ширина : 1280 пикселей
Высота : 720 пикселей
Соотношение сторон : 16:9
Режим частоты кадров : Постоянный
Частота кадров : 23,976 кадра/сек
Цветовое пространство : YUV
Субдискретизация насыщенности : 4:2:0
Битовая глубина : 8 бит
Тип развёртки : Прогрессивная
Бит/(Пиксели*Кадры) : 0.161
Размер потока : 1,28 Гбайт (84%)
Библиотека кодирования : x264 core 85 r1442tw
Настройки программы : cabac=1 / ref=5 / deblock=1:0:0 / analyse=0x3:0x113 / me=umh / subme=8 / psy=1 / psy_rd=1.00:0.00 / mixed_ref=1 / me_range=16 / chroma_me=1 / trellis=1 / 8x8dct=1 / cqm=0 / deadzone=21,11 / fast_pskip=1 / chroma_qp_offset=-2 / threads=16 / sliced_threads=0 / nr=0 / decimate=1 / mbaff=0 / constrained_intra=0 / bframes=3 / b_pyramid=2 / b_adapt=2 / b_bias=0 / direct=3 / wpredb=1 / wpredp=2 / keyint=240 / keyint_min=24 / scenecut=40 / intra_refresh=0 / rc_lookahead=50 / rc=2pass / mbtree=1 / bitrate=3554 / ratetol=1.0 / qcomp=0.60 / qpmin=10 / qpmax=51 / qpstep=4 / cplxblur=20.0 / qblur=0.5 / ip_ratio=1.40 / aq=1:1.00
Язык : English
Default : Нет
Forced : Нет

Аудио #1
Идентификатор : 1
Формат : AC-3
Формат/Информация : Audio Coding 3
Расширение режима : CM (complete main)
Параметр Endianness формата : Big
Режим смешивания : Header stripping
Идентификатор кодека : A_AC3
Продолжительность : 52 м.
Вид битрейта : Постоянный
Битрейт : 384 Кбит/сек
Каналы : 6 каналов
Расположение каналов : Front: L C R, Side: L R, LFE
Частота : 48,0 КГц
Метод сжатия : С потерями
Размер потока : 145 Мбайт (9%)
Default : Да
Forced : Нет

Аудио #2
Идентификатор : 3
Формат : AC-3
Формат/Информация : Audio Coding 3
Расширение режима : CM (complete main)
Параметр Endianness формата : Big
Режим смешивания : Header stripping
Идентификатор кодека : A_AC3
Продолжительность : 52 м.
Вид битрейта : Постоянный
Битрейт : 192 Кбит/сек
Каналы : 2 канала
Расположение каналов : Front: L R
Частота : 48,0 КГц
Метод сжатия : С потерями
Размер потока : 72,7 Мбайт (5%)
Default : Нет
Forced : Нет










Этот торрент недоступен для скачивания без регистрации, однако доступен по публичной magnet-ссылке (источники с публичных трекеров). Перед использованием ссылки прочтите, пожалуйста Пользовательское соглашение, а также как можно дольше оставайтесь на раздаче! Для того, чтобы скачать сам торрент-файл (который видит больше источников), а также для того, чтобы поблагодарить релизера, вам необходимо зарегистрироваться. Если регистрироваться лень - вы можете также попробовать скачать релиз по нашим партнерским ссылкам ниже.

[underverse.su].t59329.torrent
Трекер: Зарегистрирован   [ 24.10.2015 12:19 ]  

Статус: проверено (by Паукан at 24.10.2015 12:40)
Поблагодарили: 1 человек
Тип торрента: публичный - доступные источники с открытых трекеров: 
Размер: 1,53 GB (занимает 0,35 DVDR, для записи нужно 1 болванка DVDR/RW)
 
 

Яндекс.Метрика powered by Sphinx


В Н И М А Н И Е
Сайт не распространяет и не хранит электронные версии произведений, а лишь бесплатно и без коммерческой выгоды (не требуя взамен платы,
SMS и т.д.) предоставляет доступ к создаваемому пользователями каталогу ссылок на торрент-файлы, которые содержат только списки хеш-сумм.
Убедительная просьба с жалобами обращаться напрямую к пользователю, разместившему торрент файл.

Вверх