Loading...
Error

Большие птицы с Дэвидом Аттенборо / BBC Natural World: Attenborough's Big Birds [2015 г., документальный, HDTVRip] VO

Статистика раздачи
Размер:  751 MB   |    Зарегистрирован:  1 год 1 месяц   |    Скачан:  21 раз

Полного источника не было: 1 месяц 14 дней

Сидов:  0  |  0 KB/s  ]   Личеров:  0  |  0 KB/s  ]

* - сиды/пиры с внешних источников

   
 
Автор Сообщение

ARI71 Пол:Муж

23-Окт-2015 19:06

Большие птицы с Дэвидом Аттенборо / BBC Natural World: Attenborough's Big Birds


Год выпуска: 2015
Жанр: документальный, орнитология
Страна: Великобритания
Производство: BBC
Рассказчик: Дэвид Аттенборо
Сюжет фильма:
Птицы - хозяева небес. Насчитывая более 10000 видов, они отличаются богатым разнообразием поведения. Но из всех птиц, увиденных Дэвидом Аттенборо за долгие годы, никто и близко не сравнится с этими комическими персонажами. И дело не только в их большом размере. Есть кое-что, на что они не способны, но чем славятся птицы. Они не умеют летать. Страус, эму и нанду наравне с птицами киви и казуарами похожи на придворных шутов птичьего мира. И несмотря на то, что за всю свою жизнь они и дня не провели в воздухе, они весьма преуспели. Но как именно и почему эти птицы отказались от возможности летать? Это одна из великих тайн природы, которая занимает лучшие умы науки со времён Дарвина по сегодняшний день.
Качество видео: HDTVRip

Продолжительность: 00:59:02
Формат: AVI
Видео: XviD, 720x400, 1577 kbps
Аудио: русский, одноголосый [любительский], AC3 2.0, 192 kbps - Lord32x Studio

Код:

Общее
Полное имя : D:\KinoRay.Attenboroughs.Big.Birds.2015.HDTVRip.Lord32x.Studio.avi
Формат : AVI
Формат/Информация : Audio Video Interleave
Размер файла : 751 Мбайт
Продолжительность : 59 м.
Общий поток : 1779 Кбит/сек
Программа кодирования : VirtualDubMod 1.5.10.3 | www.virtualdub-fr.org || (build 2550/release)
Библиотека кодирования : VirtualDubMod build 2550/release

Видео
Идентификатор : 0
Формат : MPEG-4 Visual
Профиль формата : Advanced Simple@L5
Параметр BVOP формата : 1
Параметр QPel формата : Нет
Параметр GMC формата : Без точки перехода
Параметр матрицы формата : Default (H.263)
Идентификатор кодека : XVID
Идентификатор кодека/Подсказка : XviD
Продолжительность : 59 м.
Битрейт : 1577 Кбит/сек
Ширина : 720 пикселей
Высота : 400 пикселей
Соотношение сторон : 16:9
Частота кадров : 25,000 кадров/сек
Цветовое пространство : YUV
Субдискретизация насыщенности : 4:2:0
Битовая глубина : 8 бит
Тип развёртки : Прогрессивная
Метод сжатия : С потерями
Бит/(Пиксели*Кадры) : 0.219
Размер потока : 666 Мбайт (89%)
Библиотека кодирования : XviD 1.2.1 (UTC 2008-12-04)

Аудио
Идентификатор : 1
Формат : AC-3
Формат/Информация : Audio Coding 3
Расширение режима : CM (complete main)
Параметр Endianness формата : Big
Идентификатор кодека : 2000
Продолжительность : 59 м.
Вид битрейта : Постоянный
Битрейт : 192 Кбит/сек
Каналы : 2 канала
Расположение каналов : Front: L R
Частота : 48,0 КГц
Метод сжатия : С потерями
Размер потока : 81,1 Мбайт (11%)
Выравнивание : Разделение по промежуткам
Продолжительность промежутка : 40 мс. (1,00 видеокадр)
Время предзагрузки промежутка : 500 мс.
Релиз от:








Этот торрент недоступен для скачивания без регистрации, однако доступен по публичной magnet-ссылке (источники с публичных трекеров). Перед использованием ссылки прочтите, пожалуйста Пользовательское соглашение, а также как можно дольше оставайтесь на раздаче! Для того, чтобы скачать сам торрент-файл (который видит больше источников), а также для того, чтобы поблагодарить релизера, вам необходимо зарегистрироваться. Если регистрироваться лень - вы можете также попробовать скачать релиз по нашим партнерским ссылкам ниже.

[underverse.su].t59316.torrent
Трекер: Зарегистрирован   [ 23.10.2015 19:06 ]  

Статус: проверено (by makkol at 23.10.2015 22:35)
Поблагодарили: 2 человека
Тип торрента: публичный - доступные источники с открытых трекеров: 
Размер: 751 MB (занимает 0,17 DVDR, для записи нужно 1 болванка DVDR/RW)
 
 

Яндекс.Метрика powered by Sphinx


В Н И М А Н И Е
Сайт не распространяет и не хранит электронные версии произведений, а лишь бесплатно и без коммерческой выгоды (не требуя взамен платы,
SMS и т.д.) предоставляет доступ к создаваемому пользователями каталогу ссылок на торрент-файлы, которые содержат только списки хеш-сумм.
Убедительная просьба с жалобами обращаться напрямую к пользователю, разместившему торрент файл.

Вверх